<?xml version="1.0" standalone="no"?>
<!DOCTYPE svg PUBLIC "-//W3C//DTD SVG 1.1//EN" "http://www.w3.org/Graphics/SVG/1.1/DTD/svg11.dtd" >
<!--
2013-9-30: Created.
-->
<svg>
<metadata>
Created by iconfont
</metadata>
<defs>

<font id="iconfont" horiz-adv-x="1024" >
  <font-face
    font-family="iconfont"
    font-weight="500"
    font-stretch="normal"
    units-per-em="1024"
    ascent="896"
    descent="-128"
  />
    <missing-glyph />
    
    <glyph glyph-name="ali-clould-fill" unicode="&#59255;" d="M735.914667 725.333333a64 64 0 0 0 63.594666-56.810666L853.333333 192h-0.32a120.469333 120.469333 0 0 0-120.149333-129.237333H291.136A120.469333 120.469333 0 0 0 170.986667 192H170.666667l53.824 476.522667A64 64 0 0 0 288.064 725.333333h447.850667z m-3.050667-485.653333H291.136a57.024 57.024 0 0 1-8.789333-0.682667l1.642666 0.234667a56.341333 56.341333 0 0 1-3.456-0.533333l1.813334 0.298666c-1.066667-0.149333-2.090667-0.341333-3.114667-0.576l1.28 0.277334a56.042667 56.042667 0 0 1-11.136-3.370667l1.109333 0.469333c-1.088-0.426667-2.176-0.896-3.221333-1.386666l2.112 0.917333a56.170667 56.170667 0 0 1-2.666667-1.194667l0.554667 0.277334c-1.088-0.512-2.176-1.066667-3.2-1.642667l2.645333 1.365333a56.384 56.384 0 0 1-14.848-10.346666l1.450667 1.365333a56.810667 56.810667 0 0 1-2.325333-2.218667l0.853333 0.853334a56.832 56.832 0 0 1-2.133333-2.218667l1.28 1.365333c-0.853333-0.874667-1.706667-1.770667-2.496-2.709333l1.194666 1.344a56.789333 56.789333 0 0 1-2.026666-2.304l0.832 0.96a56.746667 56.746667 0 0 1-2.005334-2.432l1.173334 1.472c-0.853333-1.066667-1.706667-2.154667-2.517334-3.285333l1.344 1.813333c-0.64-0.853333-1.28-1.706667-1.877333-2.56l0.533333 0.746667c-0.64-0.874667-1.237333-1.770667-1.813333-2.688l1.28 1.941333c-0.64-0.938667-1.28-1.898667-1.856-2.88l0.576 0.938667c-0.597333-0.96-1.173333-1.92-1.706667-2.922667l1.130667 1.984c-0.64-1.066667-1.237333-2.133333-1.813333-3.242667l0.661333 1.258667c-0.426667-0.768-0.810667-1.557333-1.216-2.346667l0.554667 1.088a56.213333 56.213333 0 0 1-1.450667-3.029333l0.896 1.92c-0.618667-1.258667-1.194667-2.56-1.706667-3.882667l0.810667 1.962667a56.106667 56.106667 0 0 1-1.173333-2.837333l0.341333 0.874666a56.042667 56.042667 0 0 1-1.109333-3.072l0.768 2.197334c-0.426667-1.130667-0.810667-2.282667-1.173334-3.456l0.405334 1.258666c-0.32-0.96-0.618667-1.92-0.874667-2.88l0.469333 1.621334a56.042667 56.042667 0 0 1-1.002666-3.669334l0.533333 2.048a56.085333 56.085333 0 0 1-0.832-3.392l0.298667 1.344c-0.256-1.088-0.469333-2.197333-0.64-3.306666l0.341333 1.962666a56.469333 56.469333 0 0 1 55.296-68.032h441.728a56.469333 56.469333 0 0 1 54.464 71.424l0.533333-2.048a56.042667 56.042667 0 0 1-1.002666 3.669334l0.469333-1.621334a56.021333 56.021333 0 0 1-0.853333 2.88l0.384-1.28a56.042667 56.042667 0 0 1-1.173334 3.477334l0.768-2.197334a56.042667 56.042667 0 0 1-1.109333 3.072l0.341333-0.853333a56.106667 56.106667 0 0 1-1.173333 2.816l0.832-1.962667a56.149333 56.149333 0 0 1-1.728 3.904l0.896-1.941333a56.213333 56.213333 0 0 1-1.450667 3.029333l0.554667-1.088a56.32 56.32 0 0 1-1.237333 2.346667l0.682666-1.28a56.362667 56.362667 0 0 1-1.813333 3.264l1.130667-1.984a56.426667 56.426667 0 0 1-1.706667 2.922667l0.576-0.938667a56.533333 56.533333 0 0 1-1.856 2.88l1.28-1.92a56.576 56.576 0 0 1-1.813333 2.666667l0.533333-0.746667a56.661333 56.661333 0 0 1-1.877333 2.56l1.344-1.813333a56.704 56.704 0 0 1-2.538667 3.285333l1.194667-1.493333a56.746667 56.746667 0 0 1-1.984 2.453333l0.789333-0.96a56.789333 56.789333 0 0 1-2.026667 2.325333l1.237334-1.365333a56.810667 56.810667 0 0 1-2.517334 2.688l1.28-1.322667a56.832 56.832 0 0 1-2.133333 2.197334l0.853333-0.853334a56.810667 56.810667 0 0 1-2.325333 2.218667l1.450667-1.365333a56.746667 56.746667 0 0 1-14.869334 10.368l2.688-1.386667a56.277333 56.277333 0 0 1-3.2 1.621333l0.512-0.234666a56.170667 56.170667 0 0 1-2.645333 1.194666l2.133333-0.96c-1.066667 0.512-2.133333 0.96-3.221333 1.386667l1.066667-0.426667a56.042667 56.042667 0 0 1-11.114667 3.349334l1.28-0.277334a56.234667 56.234667 0 0 1-3.114667 0.576l1.834667-0.298666a56.341333 56.341333 0 0 1-3.456 0.533333l1.621333-0.213333a56.896 56.896 0 0 1-8.789333 0.661333zM722.837333 213.333333a30.122667 30.122667 0 1 0 0-60.245333 30.122667 30.122667 0 0 0 0 60.245333zM640 501.333333H384v-64h256v64z"  horiz-adv-x="1024" />

    
    <glyph glyph-name="coupons-fill" unicode="&#59259;" d="M148.010667 290.709333c50.069333 0 90.666667 40.874667 90.666666 91.285334 0 49.962667-39.893333 90.538667-89.344 91.264V618.666667a64 64 0 0 0 64 64h597.333334a64 64 0 0 0 64-64l-0.021334-145.450667-3.050666-0.064c-48.021333-2.304-86.272-42.24-86.272-91.157333 0-49.962667 39.872-90.56 89.322666-91.285334V149.333333a64 64 0 0 0-64-64H213.333333a64 64 0 0 0-64 64v141.397334l-1.322666-0.021334zM384 298.666667v-85.333334h68.010667v85.333334H384z m0 128v-85.333334h68.010667v85.333334H384z m0 128v-85.333334h68.010667v85.333334H384z"  horiz-adv-x="1024" />

    
    <glyph glyph-name="default-template-fill" unicode="&#59260;" d="M277.333333 597.333333v-490.666666h437.333334v-64h-405.333334a96 96 0 0 0-95.893333 91.477333L213.333333 138.666667V597.333333h64z m472.789334 127.786667a64 64 0 0 0 64-64v-451.242667a64 64 0 0 0-64-64H319.786667V661.12a64 64 0 0 0 64 64h366.336zM491.946667 454.421333l-45.226667-45.269333 88.341333-88.298667 170.112 168.405334-45.013333 45.482666-124.885333-123.626666z"  horiz-adv-x="1024" />

    
    <glyph glyph-name="feeds-fill" unicode="&#59263;" d="M810.666667 597.333333a64 64 0 0 0 64-64v-426.666666a64 64 0 0 0-64-64l-81.130667-0.021334a127.274667 127.274667 0 0 1 16.981333 57.706667L746.666667 106.666667V597.333333h64z m-170.666667 128a64 64 0 0 0 64-64v-554.666666a64 64 0 0 0-64-64H213.333333a64 64 0 0 0-64 64V661.333333a64 64 0 0 0 64 64h426.666667z m-192-320h-170.666667v-64h170.666667v64z m128 128H277.333333v-64h298.666667v64z"  horiz-adv-x="1024" />

    
    <glyph glyph-name="gold-supplie-fill" unicode="&#59264;" d="M874.666667 384c0-189.504-145.365333-345.066667-330.666667-361.28V213.333333h-64v-190.613333C294.72 38.933333 149.333333 194.474667 149.333333 384c0 189.525333 145.365333 345.088 330.666667 361.28V554.666667h64V745.28C729.301333 729.066667 874.666667 573.504 874.666667 384z m-238.229334-21.333333H387.562667L362.666667 277.333333h298.666666l-24.896 85.333334zM661.333333 490.666667H362.666667l24.896-85.333334h248.874666L661.333333 490.666667z"  horiz-adv-x="1024" />

    
    <glyph glyph-name="form-fill" unicode="&#59265;" d="M789.333333 725.333333a64 64 0 0 0 64-64v-554.666666a64 64 0 0 0-64-64H234.666667a64 64 0 0 0-64 64V661.333333a64 64 0 0 0 64 64h554.666666zM341.333333 202.666667h-106.666666V106.666667h106.666666v96z m448 0H405.333333V106.666667h384v96zM341.333333 362.666667h-106.666666v-96h106.666666V362.666667z m448 0H405.333333v-96h384V362.666667z m-448 160h-106.666666V426.666667h106.666666v96z m448 0H405.333333V426.666667h384v96z"  horiz-adv-x="1024" />

    
    <glyph glyph-name="image-text-fill" unicode="&#59266;" d="M789.333333 725.333333a64 64 0 0 0 64-64v-554.666666a64 64 0 0 0-64-64H234.666667a64 64 0 0 0-64 64V661.333333a64 64 0 0 0 64 64h554.666666z m-42.666666-448H277.333333v-64h469.333334v64zM469.333333 576h-128a64 64 0 0 1-64-64v-106.666667a64 64 0 0 1 64-64h128a64 64 0 0 1 64 64v106.666667a64 64 0 0 1-64 64z m277.333334-170.666667h-170.666667v-64h170.666667v64z m-277.333334 106.666667v-106.666667h-128v106.666667h128z"  horiz-adv-x="1024" />

    
    <glyph glyph-name="inspection-fill" unicode="&#59267;" d="M853.333333 490.666667l-0.021333-297.536-0.064 4.010666A149.333333 149.333333 0 1 1 703.850667 42.666667H234.666667a64 64 0 0 0-64 64V490.666667h682.666666z m-153.6-192a102.4 102.4 0 0 0 88.490667-153.962667l61.44-61.44-36.202667-36.202667-61.269333 61.248A102.4 102.4 0 1 0 699.733333 298.666667z m0-64a38.4 38.4 0 1 1 0-76.8 38.4 38.4 0 0 1 0 76.8zM469.333333 448h-170.666666v-64h170.666666v64zM733.482667 725.333333a64 64 0 0 0 57.237333-35.370666l55.850667-111.68A64 64 0 0 0 853.141333 554.666667H171.477333a64 64 0 0 0 5.546667 17.621333l56.490667 116.906667A64 64 0 0 0 291.136 725.333333h442.346667z"  horiz-adv-x="1024" />

    
    <glyph glyph-name="company-fill" unicode="&#59268;" d="M619.712 697.813333v-603.264h44.544V553.898667l144.576-50.88c12.778667-8.298667 20.864-22.037333 22.037333-37.077334l0.149334-3.797333-0.021334-367.594667h48.917334v-64h-666.453334v64h48.64l0.021334 489.493334c0 16.810667 8.661333 32.426667 22.912 41.365333l260.053333 113.770667c32.490667 20.288 74.624-3.050667 74.624-41.344z m-107.413333-284.010666l-142.72-58.944v-69.226667l142.72 58.944v69.226667z m0 151.36l-142.72-60.714667v-69.546667l142.72 60.757334v69.504z"  horiz-adv-x="1024" />

    
    <glyph glyph-name="integral-fill" unicode="&#59269;" d="M168.106667 274.56l120.746666-57.962667 223.274667-108.138666 215.317333 104.32 128.768 61.674666a64 64 0 0 0-29.952-84.970666l-286.229333-138.624a64 64 0 0 0-55.808 0L197.994667 189.482667A64 64 0 0 0 168.106667 274.56z m687.829333 133.930667a64 64 0 0 0-29.674667-85.546667L540.010667 184.32a64 64 0 0 0-55.808 0L197.994667 322.944A64 64 0 0 0 166.826667 405.12l317.013333-149.525333 28.288-13.696 286.229333 138.624-0.149333 0.064 57.728 27.882666zM540.032 710.208l286.208-138.602667a64 64 0 0 0 0-115.2l-286.208-138.624a64 64 0 0 0-55.808 0L197.994667 456.405333a64 64 0 0 0 0 115.2L484.224 710.186667a64 64 0 0 0 55.808 0z"  horiz-adv-x="1024" />

    
    <glyph glyph-name="logistic-logo-fill" unicode="&#59270;" d="M354.986667 192a533.376 533.376 0 0 1 103.104-166.698667 362.773333 362.773333 0 0 0-249.28 159.594667L204.288 192h150.72z m464.725333 0a363.157333 363.157333 0 0 0-228.16-161.92 533.333333 533.333333 0 0 1 98.773333 161.92h129.386667z m-212.181333-0.042667a457.813333 457.813333 0 0 0-84.885334-124.117333 458.24 458.24 0 0 0-79.786666 113.578667l-5.056 10.538666h169.728zM321.045333 341.333333c2.325333-29.162667 6.976-57.685333 13.802667-85.333333H172.565333a360.170667 360.170667 0 0 0-19.285333 74.24L151.808 341.333333h169.237333z m326.72 0a454.933333 454.933333 0 0 0-16.213333-85.354666H413.781333a454.613333 454.613333 0 0 0-14.869333 72.810666L397.568 341.333333h250.197333z m224.426667 0a360.384 360.384 0 0 0-20.757333-85.333333h-140.949334c6.826667 27.648 11.477333 56.170667 13.802667 85.333333h147.904z m-537.344 170.666667a532.970667 532.970667 0 0 1-15.061333-106.666667H149.973333c1.941333 33.621333 8.469333 66.005333 18.986667 96.554667l3.626667 10.112h162.282666z m296.704 0c9.92-34.090667 16-69.802667 17.685333-106.666667H396.096c1.493333 32.768 6.464 64.64 14.506667 95.253334l3.178666 11.413333h217.770667z m227.242667-21.610667A360.746667 360.746667 0 0 0 874.048 405.333333H725.546667a534.08 534.08 0 0 1-9.984 83.989334c5.482667-6.122667 11.157333-12.117333 17.002666-17.962667l8.874667-8.682667 9.024-8.362666 7.509333-6.613334 28.693334-24 30.208 25.301334 5.994666 5.312 9.024 8.362666c9.322667 8.896 18.346667 18.154667 26.901334 27.712zM786.666667 746.666667c57.429333 0 104-45.248 104-101.077334l-0.064-3.562666c-1.28-33.386667-20.288-70.954667-51.477334-109.056a438.997333 438.997333 0 0 0-52.458666-53.653334 392.704 392.704 0 0 0-15.786667 14.250667 438.997333 438.997333 0 0 0-36.693333 39.402667c-31.168 38.101333-50.154667 75.669333-51.456 109.056a92.586667 92.586667 0 0 0-0.064 3.562666C682.666667 701.44 729.237333 746.666667 786.666667 746.666667z m-328.576-3.968A533.333333 533.333333 0 0 1 354.986667 576H204.266667a362.944 362.944 0 0 0 243.498666 164.992l8.576 1.429333 1.749334 0.277334z m64.597333-42.538667A458.026667 458.026667 0 0 0 607.552 576H437.76a457.728 457.728 0 0 0 74.410667 112.874667l7.616 8.298666 2.88 2.986667z m263.978667-27.776a29.717333 29.717333 0 1 1 0-59.434667 29.717333 29.717333 0 0 1 0 59.434667z m-195.114667 65.514667c23.296-5.205333 45.738667-12.650667 67.093333-22.101334a140.373333 140.373333 0 0 1-16.384-44.928 534.442667 534.442667 0 0 1-50.709333 67.029334z"  horiz-adv-x="1024" />

    
    <glyph glyph-name="manage-order-fill" unicode="&#59271;" d="M741.717333 299.989333a64 64 0 0 0 55.424-32l37.717334-65.322666a64 64 0 0 0 0-64l-37.717334-65.322667a64 64 0 0 0-55.424-32h-75.434666a64 64 0 0 0-55.424 32L573.141333 138.666667a64 64 0 0 0 0 64l37.717334 65.322666a64 64 0 0 0 55.424 32h75.434666zM341.333333 704v-85.333333a64 64 0 0 1 60.245334-63.893334L405.333333 554.666667h213.333334a64 64 0 0 1 63.893333 60.245333L682.666667 618.666667V704h42.666666a64 64 0 0 0 64-64l-0.021333-298.816-158.634667-0.554667a42.666667 42.666667 0 0 1-33.216-16.064l-2.090666-2.858666-79.850667-119.189334a42.666667 42.666667 0 0 1-3.818667-40.469333l1.557334-3.242667L574.741333 42.666667H298.666667a64 64 0 0 0-64 64V640a64 64 0 0 0 64 64h42.666666z m400.384-468.010667h-75.434666L628.565333 170.666667l37.717334-65.322667h75.434666L779.434667 170.666667l-37.717334 65.322666zM704 213.333333a42.666667 42.666667 0 1 0 0-85.333333 42.666667 42.666667 0 0 0 0 85.333333z m-149.333333 149.333334h-192v-64h192v64z m106.666666 128H362.666667v-64h298.666666v64zM576 768a64 64 0 0 0 64-64v-42.666667a64 64 0 0 0-64-64h-128a64 64 0 0 0-64 64V704a64 64 0 0 0 64 64h128z m0-64h-128v-42.666667h128V704z"  horiz-adv-x="1024" />

    
    <glyph glyph-name="order-fill" unicode="&#59272;" d="M298.666667 704h42.666666v-85.333333a64 64 0 0 1 60.245334-63.893334L405.333333 554.666667h213.333334a64 64 0 0 1 63.893333 60.245333L682.666667 618.666667V704h42.666666a64 64 0 0 0 64-64v-533.333333a64 64 0 0 0-64-64H298.666667a64 64 0 0 0-64 64V640a64 64 0 0 0 64 64z m256-341.333333h-192v-64h192v64z m106.666666 128H362.666667v-64h298.666666v64zM576 768a64 64 0 0 0 64-64v-42.666667a64 64 0 0 0-64-64h-128a64 64 0 0 0-64 64V704a64 64 0 0 0 64 64h128z m0-64h-128v-42.666667h128V704z"  horiz-adv-x="1024" />

    
    <glyph glyph-name="online-tracking-fill" unicode="&#59273;" d="M789.333333 725.333333a64 64 0 0 0 64-64v-197.248A193.493333 193.493333 0 0 1 725.333333 512c-105.770667 0-192-83.797333-192-187.797333l0.106667-5.930667c2.069333-53.824 27.584-110.570667 72.533333-168.917333L234.666667 149.333333a64 64 0 0 0-64 64V661.333333a64 64 0 0 0 64 64h554.666666zM469.333333 448h-192v-64h192v64z m170.666667 128H277.333333v-64h362.666667v64zM725.333333 469.333333c82.474667 0 149.333333-64.981333 149.333334-145.130666l-0.106667-5.12c-1.834667-47.957333-29.12-101.888-73.898667-156.586667a630.357333 630.357333 0 0 0-52.650666-56.576l-9.024-8.448-8.234667-7.36c-2.410667-2.133333-4.266667-3.690667-5.418667-4.650667l-5.418666 4.650667-8.234667 7.36a630.357333 630.357333 0 0 0-61.674667 65.024c-44.8 54.698667-72.064 108.629333-73.898666 156.586667l-0.106667 5.12C576 404.352 642.858667 469.333333 725.333333 469.333333z m8.896-285.909333c5.845333 6.464 11.52 13.013333 16.917334 19.626667 36.714667 44.842667 56.533333 84.693333 59.2 114.496l0.277333 4.010666 0.042667 2.645334C810.666667 368.576 772.864 405.333333 725.333333 405.333333c-46.037333 0-82.965333-34.474667-85.226666-76.992l-0.106667-4.138666 0.042667-2.645334c1.173333-30.186667 21.077333-71.616 59.477333-118.506666 5.418667-6.613333 11.072-13.162667 16.917333-19.626667l8.896-9.642667 8.896 9.642667zM725.333333 320m-42.666666 0a42.666667 42.666667 0 1 1 85.333333 0 42.666667 42.666667 0 1 1-85.333333 0Z"  horiz-adv-x="1024" />

    
    <glyph glyph-name="rankinglist-fill" unicode="&#59274;" d="M512 576c153.173333 0 277.333333-124.16 277.333333-277.333333s-124.16-277.333333-277.333333-277.333334-277.333333 124.16-277.333333 277.333334 124.16 277.333333 277.333333 277.333333z m0-128a149.333333 149.333333 0 1 1 0-298.666667 149.333333 149.333333 0 0 1 0 298.666667z m0-64a85.333333 85.333333 0 1 0 0-170.666667 85.333333 85.333333 0 0 0 0 170.666667zM736 736a64 64 0 0 0 63.893333-60.245333l0.106667-3.754667v-109.248l-50.069333-50.090667a321.066667 321.066667 0 0 1-99.242667 74.453334L650.666667 704h-64v-94.08A320.853333 320.853333 0 0 1 512 618.666667a320.853333 320.853333 0 0 1-74.666667-8.746667V704h-64v-116.864a321.066667 321.066667 0 0 1-99.264-74.453333L224 562.730667V672a64 64 0 0 0 60.245333 63.893333L288 736h448z"  horiz-adv-x="1024" />

    
    <glyph glyph-name="Similarproducts-fill" unicode="&#59276;" d="M896 64v-64H597.333333v64h298.666667zM192 540.522667l300.373333-132.672-1.621333-375.978667a64.064 64.064 0 0 0-2.346667 1.002667l-258.389333 114.730666A64 64 0 0 0 192 206.10133299999995V540.522667zM896 170.66666699999996v-64H597.333333v64h298.666667z m0 106.666666v-64H597.333333v64h298.666667z m-59.264 259.626667V320h-280.746667l0.362667 86.122667 280.384 130.837333zM540.352 735.146667l258.346667-114.752c9.834667-4.373333 18.197333-11.008 24.533333-19.157334l-297.002667-139.114666-318.784 141.482666a63.914667 63.914667 0 0 0 22.570667 16.789334l258.389333 114.730666a64 64 0 0 0 51.946667 0z"  horiz-adv-x="1024" />

    
    <glyph glyph-name="signboard-fill" unicode="&#59277;" d="M545.536 743.04a64 64 0 0 0 20.970667-20.949333L643.264 597.333333H789.333333c35.349333 0 64-31.146667 64-69.546666v-394.24c0-38.4-28.650667-69.546667-64-69.546667H234.666667c-35.349333 0-64 31.146667-64 69.546667V527.786667C170.666667 566.186667 199.317333 597.333333 234.666667 597.333333h146.048l76.778666 124.757334a64 64 0 0 0 88.042667 20.970666zM640 298.666667H277.333333v-64h362.666667v64z m106.666667 149.333333H277.333333v-64h469.333334v64zM512 688.554667L455.872 597.333333h112.256L512 688.554667z"  horiz-adv-x="1024" />

    
    <glyph glyph-name="trust-fill" unicode="&#59279;" d="M546.581333 2.453333a64 64 0 0 0-90.496 0L109.12 349.44a64 64 0 0 0 0 90.496L334.570667 665.386667a64 64 0 0 0 90.496 0l76.245333-76.266667 76.288 76.266667a64 64 0 0 0 90.496 0L893.546667 439.893333a64 64 0 0 0 0-90.496L546.56 2.453333z m-166.762666 617.642667L154.389333 394.666667 501.333333 47.722667l21.034667 21.034666-76.245333 76.266667 45.248 45.248 76.266666-76.266667 23.786667 23.786667-76.266667 76.266667 45.269334 45.269333 76.245333-76.266667 27.648 27.648-76.245333 76.266667 45.248 45.248 76.266666-76.266667 17.173334 17.194667-100.565334 100.565333-3.349333-3.349333a120.298667 120.298667 0 0 0-170.112 0l-39.808 39.808a64 64 0 0 0 0 90.496l43.136 43.178667-76.245333 76.245333z"  horiz-adv-x="1024" />

    
    <glyph glyph-name="template-fill" unicode="&#59278;" d="M277.333333 597.333333v-490.666666h437.333334v-64h-405.333334a96 96 0 0 0-95.893333 91.477333L213.333333 138.666667V597.333333h64z m472.789334 127.786667a64 64 0 0 0 64-64v-451.242667a64 64 0 0 0-64-64H319.786667V661.12a64 64 0 0 0 64 64h366.336zM640 597.333333h-192v-64h192v64z"  horiz-adv-x="1024" />

    
    <glyph glyph-name="packing-labeling-fill" unicode="&#59285;" d="M853.333333 512l-0.021333-245.013333-123.392 123.392-106.794667-106.816 33.322667-33.322667h-143.061333v-151.04h142.186666L623.146667 66.773333 647.168 42.666667 234.666667 42.666667a64 64 0 0 0-64 64V512h682.666666z m-384-64h-170.666666v-64h170.666666v64zM733.482667 725.333333a64 64 0 0 0 57.237333-35.370666l55.850667-111.68 1.024-2.282667H178.816l54.698667 113.173333A64 64 0 0 0 291.136 725.333333h442.346667zM556.053333 203.605333l203.392 0.021334-75.989333 75.989333 46.464 46.464 154.88-154.88-154.88-154.88-46.464 46.464 75.114667 75.136h-202.517334z"  horiz-adv-x="1024" />

    
    <glyph glyph-name="Exportservices-fill" unicode="&#59288;" d="M708.224 223.48800000000006a385.536 385.536 0 0 0 75.285333-58.602667 362.304 362.304 0 0 0-202.24-115.626666l-6.933333 2.901333a449.578667 449.578667 0 0 1 133.610667 170.709333z m-392.448 0a449.386667 449.386667 0 0 1 133.909333-171.306667c-2.304-1.002667-4.629333-1.962667-6.954666-2.901333a362.261333 362.261333 0 0 0-202.218667 115.584 384.149333 384.149333 0 0 0 72.021333 56.661333zM512 277.33333300000004c48.874667 0 95.616-9.130667 138.624-25.813333A385.493333 385.493333 0 0 0 512 85.99466700000005a385.450667 385.450667 0 0 0-138.624 165.546666A383.061333 383.061333 0 0 0 512 277.33333300000004zM202.090667 593.8346670000001a449.322667 449.322667 0 0 1 91.690666-67.84C283.050667 487.594667 277.333333 447.146667 277.333333 405.333333c0-41.813333 5.717333-82.282667 16.426667-120.64a449.493333 449.493333 0 0 1-91.669333-67.84A361.130667 361.130667 0 0 0 149.333333 405.333333c0 66.773333 18.048 129.322667 49.514667 183.04zM874.666667 405.333333a360.96 360.96 0 0 0-52.778667-188.501333 447.936 447.936 0 0 1-91.669333 67.84c10.730667 38.4 16.448 78.848 16.448 120.661333 0 41.813333-5.717333 82.282667-16.426667 120.64a449.493333 449.493333 0 0 1 91.690667 67.84A361.216 361.216 0 0 0 874.666667 405.333333z m-203.370667 93.162667A384.853333 384.853333 0 0 0 682.666667 405.333333a384.853333 384.853333 0 0 0-11.370667-93.141333A446.976 446.976 0 0 1 512 341.33333300000004c-56.106667 0-109.802667-10.304-159.296-29.162666A384.853333 384.853333 0 0 0 341.333333 405.333333c0 32.128 3.946667 63.338667 11.370667 93.141334A446.976 446.976 0 0 1 512 469.333333c54.976 0 107.648 9.898667 156.330667 28.032zM512 724.650667a385.450667 385.450667 0 0 0 138.602667-165.546667A383.061333 383.061333 0 0 0 512 533.333333c-48.874667 0-95.616 9.130667-138.624 25.813334a385.493333 385.493333 0 0 0 135.893333 163.690666z m-69.333333 36.736l6.976-2.88a449.621333 449.621333 0 0 1-133.888-171.306667 385.536 385.536 0 0 0-75.285334 58.581333 362.304 362.304 0 0 0 202.218667 115.605334z m340.8-115.584l-2.709334-2.709334a385.322667 385.322667 0 0 0-72.554666-55.893333 449.386667 449.386667 0 0 1-133.909334 171.306667l6.976 2.901333a362.368 362.368 0 0 0 202.197334-115.626667z"  horiz-adv-x="1024" />

    
    <glyph glyph-name="rejected-order-fill" unicode="&#59294;" d="M810.666667 256a64 64 0 0 0 64-64v-128a64 64 0 0 0-64-64h-149.333334a64 64 0 0 0-64 64v128a64 64 0 0 0 64 64h149.333334zM341.333333 704v-85.333333a64 64 0 0 1 60.245334-63.893334L405.333333 554.666667h213.333334a64 64 0 0 1 63.893333 60.245333L682.666667 618.666667V704h42.666666a64 64 0 0 0 64-64l-0.021333-341.333333H618.666667a64 64 0 0 1-63.893334-60.245334L554.666667 234.666667v-192H298.666667a64 64 0 0 0-64 64V640a64 64 0 0 0 64 64h42.666666z m469.333334-512h-149.333334v-128h149.333334v128z m-21.333334-32v-64h-105.898666v64H789.333333zM554.666667 362.666667h-192v-64h192v64z m106.666666 128H362.666667v-64h298.666666v64zM576 768a64 64 0 0 0 64-64v-42.666667a64 64 0 0 0-64-64h-128a64 64 0 0 0-64 64V704a64 64 0 0 0 64 64h128z m0-64h-128v-42.666667h128V704z"  horiz-adv-x="1024" />

    
    <glyph glyph-name="writing" unicode="&#59299;" d="M830.784 406.698667l45.098667-45.397334-322.282667-320-14.656 14.762667 14.741333-14.890667h-45.013333v45.376l-0.149333 0.149334 322.261333 320zM746.666667 725.333333a64 64 0 0 0 64-64v-192l-64-64V661.333333H394.666667v-554.666666H448l-64-64h-106.666667a64 64 0 0 0-64 64V661.333333a64 64 0 0 0 64 64h469.333334z m-416-64H277.333333v-554.666666h53.333334V661.333333zM618.666667 469.333333v-64h-170.666667v64h170.666667z m64 128v-64H448v64h234.666667z"  horiz-adv-x="1024" />

    
    <glyph glyph-name="shenqingjilu" unicode="&#59332;" d="M746.666667 704a64 64 0 0 0 64-64v-444.586667L657.6 21.333333H298.666667a64 64 0 0 0-64 64V640a64 64 0 0 0 64 64v-618.666667h266.645333l0.021333 181.333334H746.666667V704z m-14.848-501.333333H629.333333l-0.021333-116.586667 102.506667 116.586667zM554.666667 384v-64h-192v64h192z m106.666666 128v-64H362.666667v64h298.666666z m42.666667 234.666667v-106.666667h-64V746.666667h64zM402.816 746.666667v-106.666667h-64V746.666667h64zM597.333333 713.28v-64h-149.333333v64h149.333333z"  horiz-adv-x="1024" />

    
    <glyph glyph-name="shangchuanbeiandanzheng" unicode="&#59333;" d="M341.333333 704v-63.978667L298.666667 640v-533.333333h213.333333v-64H298.666667a64 64 0 0 0-64 64V640a64 64 0 0 0 64 64h42.666666z m344.469334-402.517333l109.696-109.696-45.248-45.248-32.853334 32.874666-0.021333-134.122666h-64V178.56l-32-32.021333-45.269333 45.226666 109.696 109.717334zM554.666667 362.666667v-64h-192v64h192z m170.666666 341.333333a64 64 0 0 0 64-64l-0.021333-298.666667h-64L725.333333 640h-42.666666V704h42.666666z m-64-213.333333v-64H362.666667v64h298.666666zM576 768a64 64 0 0 0 64-64v-42.666667a64 64 0 0 0-64-64h-128a64 64 0 0 0-64 64V704a64 64 0 0 0 64 64h128z m0-64h-128v-42.666667h128V704z"  horiz-adv-x="1024" />

    
    <glyph glyph-name="dui" unicode="&#58999;" d="M788.6 583.2c6.7-6.7 10.5-15.9 10.5-25.4 0-9.5-3.8-18.7-10.5-25.4L441.1 184.8c-6.7-6.7-15.9-10.5-25.4-10.5-9.5 0-18.7 3.8-25.4 10.5L234.5 340.6c-6.4 6.8-9.8 15.8-9.6 25.1 0.2 9.3 3.9 18.2 10.5 24.8 6.6 6.6 15.5 10.4 24.8 10.5 9.3 0.2 18.3-3.3 25.1-9.6L415.7 261l322.1 322.1c6.7 6.7 15.9 10.5 25.4 10.5 9.6 0.1 18.7-3.7 25.4-10.4z"  horiz-adv-x="1024" />

    
    <glyph glyph-name="chakan" unicode="&#58892;" d="M161.94 578.94c-62.88-108.86-62.88-242.98 0-351.85s179.08-175.92 304.84-175.92c194.4 0 352 157.53 352 351.85 0 194.32-157.6 351.85-352 351.85-125.76-0.01-241.96-67.07-304.84-175.93zM470.5 881.87c174.85 0 335.27-96.94 416.5-251.7 81.24-154.76 69.88-341.8-29.48-485.6l146.61-144a66.649 66.649 0 0 0 19.97-46.98 66.58 66.58 0 0 0-19.16-47.31l-0.13-0.13-0.67-0.67c-26.12-26.03-68.34-26.15-94.61-0.27l-143.39 140.9C605.35-83.8 378.55-93.52 207.22 22.14s-247 329.6-186.49 527.2C81.24 746.94 263.75 881.87 470.5 881.87z"  horiz-adv-x="1024" />

    
    <glyph glyph-name="logo" unicode="&#58891;" d="M1023.395276 213.266142v0zM973.606299 536.188976l-3.023622-5.03937-48.176378-78.815748a738.570079 738.570079 0 0 1-204.39685 70.551181c-218.103937 40.919685-384-30.63937-384-30.63937l-31.445669-110.866141c165.291339 65.108661 319.697638 53.417323 447.496063 16.125984a971.187402 971.187402 0 0 0 265.27244-126.992126c9.877165-6.450394 18.544882-12.497638 26.00315-17.738583L973.606299 536.188976zM481.159055 674.267717c51.401575 0 99.577953-14.513386 140.497638-39.911811 34.066142-20.96378 63.092913-49.385827 85.064567-83.048819 54.828346-8.062992 124.573228-24.592126 200.566929-58.456693l0.806299 1.209449C802.670866 669.429921 597.266142 771.023622 416.655118 699.262992c-45.152756-18.141732-85.064567-63.294488-118.727559-95.546457l1.411024-1.209448c47.974803 44.346457 111.672441 71.76063 181.820472 71.76063zM303.974803 381.379528c269.505512-44.144882 368.47874-114.091339 397.102362-140.296063l-0.403149-0.40315c-48.982677-69.140157-129.007874-114.091339-219.514961-114.091339a272.125984 272.125984 0 0 0-270.110236 273.738583c0 80.226772 34.267717 151.987402 88.289764 202.179528l-1.411024 1.209448C179.401575 490.028346 137.070866 300.951181 205.001575 125.782677c37.896063-97.562205 103.811024-174.765354 183.029921-224.151181l2.015748-0.40315a474.103937 474.103937 0 0 1 44.346457-9.070866l3.426771-0.604724c7.055118-1.007874 13.908661-2.015748 20.762205-2.620473l3.829921-0.201574c6.853543-0.806299 14.110236-1.411024 20.96378-1.612599l3.628346-0.201575 21.165355-0.604724a499.300787 499.300787 0 0 1 331.187401 130.620472 494.261417 494.261417 0 0 1 42.733859 45.152756l5.442519 6.651969c5.240945 6.450394 10.07874 12.900787 14.916536 19.552756l6.450393 9.070866c3.426772 5.240945 7.055118 10.280315 10.280315 15.52126l5.84567 9.070866 13.505511 23.584252 3.829922 7.659842 8.869291 18.343307 4.837795 10.683465c2.418898 5.845669 5.03937 11.892913 7.256693 17.940158 1.209449 3.023622 2.620472 6.047244 3.628347 9.27244 3.225197 8.667717 6.047244 17.537008 8.869291 26.204725l0.604724 2.217323v0.604724c-1.007874 0.604724-109.858268 66.31811-231.206299 103.206299-224.352756 68.535433-441.247244 39.710236-441.247244 39.710237zM937.725984 618.229921l-2.015748 4.031496-1.411023 2.015748a541.228346 541.228346 0 0 1-27.011024 43.137008l-6.047244 8.466142A503.130709 503.130709 0 0 1 884.913386 697.247244L878.664567 704.503937a515.023622 515.023622 0 0 1-12.900787 14.513386l-7.458268 8.062992a452.535433 452.535433 0 0 1-15.11811 14.916535L837.744882 747.237795a485.190551 485.190551 0 0 1-20.56063 18.141733l-8.062992 6.047244a516.63622 516.63622 0 0 1-15.319685 11.892913L785.537008 789.165354a497.889764 497.889764 0 0 1-22.374803 14.714961L758.324409 806.903937A482.166929 482.166929 0 0 1 709.543307 832.503937L701.480315 836.132283a487.811024 487.811024 0 0 1-26.204724 10.683465L668.422047 849.033071A449.511811 449.511811 0 0 1 614.80315 864.352756L608.95748 865.76378a490.431496 490.431496 0 0 1-29.228346 5.240944l-8.062992 1.007874a468.459843 468.459843 0 0 1-22.777953 2.418898L539.817323 875.237795A483.577953 483.577953 0 0 1 166.097638 733.530709a496.680315 496.680315 0 0 1-144.932284-375.130709l0.40315-6.853543a518.853543 518.853543 0 0 1 2.015748-23.382677 495.874016 495.874016 0 0 1 174.765354-328.768504l0.201575-0.201575a485.392126 485.392126 0 0 1 37.291339-28.220473l2.418897-1.612598c5.644094-4.031496 11.489764-7.659843 17.335433-11.288189l2.015748-1.007874c6.047244-3.829921 12.094488-7.458268 18.544882-10.885039l2.418898-1.209449c6.047244-3.426772 12.094488-6.651969 18.544882-9.675591l2.418897-1.209449c6.248819-3.023622 12.699213-6.047244 19.149607-8.667716l3.426771-1.411024c6.047244-2.620472 12.296063-5.240945 18.544882-7.458268l3.628347-1.209448c6.248819-2.418898 12.699213-4.63622 19.149606-6.651969l3.426772-1.007874a496.680315 496.680315 0 0 1 21.165354-6.047244 457.776378 457.776378 0 0 0-183.029921 224.151181C137.070866 300.951181 179.401575 490.028346 297.927559 603.716535c33.864567 32.251969 73.574803 58.456693 118.929134 76.598426 180.409449 71.76063 385.814173-10.885039 491.237795-186.255118l53.014173 74.179527a493.051969 493.051969 0 0 1-23.382677 49.990551zM1339.464567 574.488189a64.907087 64.907087 0 0 0 12.497638 21.770079l6.248819 3.628346h2.822047c5.03937 1.411024 20.96378 2.418898 23.785827 2.620473a45.354331 45.354331 0 0 0 8.869291-0.40315h206.009449l12.497638-14.110236 42.733858 92.32126H1285.644094a109.051969 109.051969 0 0 1-38.903937-11.489764 99.174803 99.174803 0 0 1-31.445669-22.374803c-29.833071-31.848819-33.461417-81.033071-42.330708-122.154331-8.264567-37.291339-15.722835-74.985827-23.181103-112.88189-1.612598-8.062992-3.023622-16.327559-5.240945-24.188976-8.062992-29.026772-10.48189-71.559055 13.707087-93.329134 6.047244-5.44252 18.948031-13.303937 27.414173-13.303937h386.822047c8.869291 43.338583 18.948031 86.677165 26.607874 130.418898 4.63622 26.204724 11.086614 55.029921-13.505511 72.970078a42.935433 42.935433 0 0 1-20.56063 1.814174l-173.152756 0.604724-17.133859-81.637795 21.770079 9.272441h45.757481v-5.84567l-10.48189-48.176378s-104.214173-2.418898-112.88189 1.209449l-2.418898 1.209449a33.259843 33.259843 0 0 0-12.497637 12.900787 61.883465 61.883465 0 0 0-0.604725 25.196851l36.08189 173.959055zM2482.393701 580.535433l26.406299 95.748032h-193.713386c-39.307087 1.209449-94.941732 1.209449-198.954331 0l-6.047244-28.623622-13.303937-64.503937-53.215748 95.344881H1755.91811a121.952756 121.952756 0 0 1-58.859842-27.615748 135.659843 135.659843 0 0 1-22.777953-36.283464l-10.280315-27.817323-42.330709-204.39685c-4.031496-21.366929-8.062992-45.152756 0-66.116536 6.047244-15.52126 27.212598-35.074016 44.548032-35.074016h310.425197a107.237795 107.237795 0 0 1 87.483464 71.76063c4.837795 12.497638 7.055118 25.19685 10.07874 38.299213l35.074016 169.322835 3.225197 15.722834 5.44252 4.636221h104.415748l-58.255118-282.204725-17.133859-19.351181h178.998426l-9.877166 19.552756 58.456693 282.204724 107.84252-0.604724z m-535.181103-7.659842l-26.406299-129.007874-12.296063-60.472441-2.418897-6.853544a26.00315 26.00315 0 0 0-17.537008-16.529134h-94.740158a34.066142 34.066142 0 0 0-8.062992 12.296063l0.806299 11.489764a55.231496 55.231496 0 0 0 1.411024 9.675591l36.485039 178.79685 4.636221 12.094488a50.393701 50.393701 0 0 0 23.382677 17.133859h71.35748c21.366929 2.015748 29.228346-7.659843 23.382677-28.825197zM2776.491339 647.256693l-23.785827 30.63937h-115.300788c-31.04252 0-54.425197-3.023622-72.970078-8.466142a126.588976 126.588976 0 0 1-65.713386-43.943307l-0.40315-0.403149a106.028346 106.028346 0 0 1-13.303937-20.157481l-7.055118-18.544882-1.209449-6.047244-2.015748-10.07874-1.411023-6.450394-37.694489-182.022047a466.24252 466.24252 0 0 1-7.458267-47.571653s-8.466142-47.571654 46.966929-52.409449l5.03937-1.209449h170.532283c1.411024 1.814173 18.544882 26.406299 28.220473 78.815748h-79.218898a34.066142 34.066142 0 0 0-8.062992 12.296063l1.007874 11.489764c0 3.426772 0.604724 6.651969 1.411024 9.67559l36.485039 178.796851 3.023622 8.062992 1.612599 4.233071a50.79685 50.79685 0 0 0 23.382677 16.932283h71.35748c18.746457 1.814173 27.011024-5.44252 24.793701-21.568504a50.393701 50.393701 0 0 0-1.411024-7.055118l-38.702362-189.480315-2.418898-6.853543s-30.23622-82.645669-59.061417-95.344882h137.272441c37.291339 4.031496 60.472441 44.951181 73.171654 76.8 4.031496 10.683465 6.450394 21.971654 8.667716 33.259843l21.971654 105.423622-64.503937 82.847244-53.215748 68.333858zM3051.03622 337.033071l-15.521259 19.149606 15.319685-20.15748 0.201574 1.007874zM3050.834646 336.025197l43.338582-56.440945h127.798426a55.83622 55.83622 0 0 0-10.280315 28.220472s57.247244 428.144882 66.721259 436.409449c0 0-219.514961-83.451969-222.538582-85.064567 6.853543-7.458268 43.943307-18.544882 44.346456-28.220472l-24.188976-171.540158-176.377953 217.499213h-109.051968l244.913386-320.705512 15.521259-19.149606v-1.007874zM1261.858268 171.137008v-152.793701h-16.125985v48.377953a134.450394 134.450394 0 0 0-37.896063-26.00315l-6.651968 18.141733 44.749606 16.529133v47.571654h-43.137008v8.667716h43.137008v39.307087h16.125985z m43.137008 0V109.858268l34.267716 35.27559 10.48189-14.513386a124.371654 124.371654 0 0 0-44.749606-28.422047v-68.535433h35.477165l4.837795 22.173228 3.829921-22.173228h5.84567c0-10.683465-3.829921-14.714961-9.272441-14.714961h-47.773229c-5.03937 0-9.272441 5.240945-9.27244 11.691339v140.296063h16.125984zM1417.272441 151.382677h77.404724l-14.513385 19.351181a32.856693 32.856693 0 0 0 30.840944-12.094488l-8.667716-7.256693h61.27874a6.651969 6.651969 0 0 1 5.240945 2.822047l3.023622 3.426772 5.240945-8.264567-3.426772-4.031496a8.466142 8.466142 0 0 0-6.450394-2.418898h-149.971653v8.466142z m50.595276-96.352756a101.593701 101.593701 0 0 0-47.571654-31.848819l35.67874 44.951181 12.094488-13.102362z m-10.078741 78.614173v-5.03937h80.629922l2.620472 5.240945 16.125984-5.644094-4.031496-8.466142v-41.322835h-16.125984v5.039371h-31.647244v-49.184252c0-8.062992-2.015748-15.52126-12.094488-15.52126h-16.125985l-6.450393 14.110236h18.544882v50.393701H1457.385827v-4.837796h-16.125984v55.433071h16.125984z m0-41.524409h79.017323V119.937008h-79.218897v-27.817323z m104.818898-68.333858l-39.307087 41.927559a87.483465 87.483465 0 0 0 48.781103-27.011024l-9.675591-14.916535zM1695.647244 171.338583v-34.267717h41.927559v34.267717h16.327559v-34.267717h18.544882a6.450394 6.450394 0 0 1 5.240945 2.620473l2.822047 3.426771 5.44252-8.062992-3.628347-4.031496a8.264567 8.264567 0 0 0-6.047244-2.620472H1753.700787v-47.974804h24.188977a7.458268 7.458268 0 0 1 5.240945 2.822048l3.023622 3.225197 5.03937-8.062993-3.426772-3.628346a8.062992 8.062992 0 0 0-6.248819-3.023622h-139.892913v8.667716h37.492913v47.974804h-32.050393v8.869291h32.251968v34.066142h16.125984z m3.426772-119.735433a92.724409 92.724409 0 0 0-51.804725-33.058268l38.702363 46.16063 13.102362-13.102362z m-3.426772 28.825196h41.927559v47.974804h-41.927559v-47.974804z m77.807874-61.27874l-40.314961 42.532284c16.932283-0.40315 39.508661-14.110236 51.60315-28.220473l-11.288189-14.513386zM1884.724409 167.105512v-6.047244h18.544882l1.814174 6.047244 16.125984-4.434646-3.023622-10.07874v-118.324409c0-8.062992-2.015748-15.52126-12.094488-15.52126h-10.683465l-5.03937 15.11811h11.489764v39.105512h-17.738583c-2.418898-39.105512-13.303937-50.998425-28.220472-54.223622 9.070866 18.544882 12.699213 39.508661 12.699212 77.001574v71.357481h16.125984z m0-85.064567h17.133859v30.23622H1884.724409v-30.23622z m0 39.508661h17.133859v30.236221H1884.724409v-30.236221z m43.741733 24.188977h11.892913l-10.885039 22.777952a24.188976 24.188976 0 0 0 24.188976-15.521259l-7.659842-7.256693h10.07874c2.217323 7.659843 4.233071 16.327559 6.047244 26.204724l16.327559-3.225197c-1.411024-8.062992-3.023622-16.125984-5.03937-22.979527h7.458268l7.659842 24.390551 15.52126-7.055118a51.60315 51.60315 0 0 0-15.11811-17.335433h7.861417a7.055118 7.055118 0 0 1 5.240945 2.418897l3.023622 3.426772 5.240945-8.062992-3.628347-3.829921a8.869291 8.869291 0 0 0-6.047244-2.620473h-29.833071a124.976378 124.976378 0 0 0-5.240944-13.505512h36.485039a6.853543 6.853543 0 0 1 5.44252 2.822048l3.023622 3.426771 5.240944-8.264567-3.628346-3.628346a8.062992 8.062992 0 0 0-6.248819-3.023622h-16.125984c8.466142-9.070866 16.125984-14.110236 26.204724-18.746457-3.829921-12.900787-13.505512-16.125984-23.181102-5.03937L1992.16378 89.700787l-2.620473-24.188976h4.837795l2.418898 5.240945 15.924409-4.233071-3.225196-7.861417-1.209449-25.196851c-0.40315-8.062992-2.822047-14.110236-12.900788-14.110236H1979.464567l-4.031496 13.908662h16.529134l1.209449 23.382677h-44.346457l-0.201575-3.628347-16.327559 1.411024 3.426772 28.220472 16.327559-1.612598-2.015748-15.722835h23.181102l2.418898 22.576378h-36.283465v3.426772a50.998425 50.998425 0 0 0-20.15748-6.853543 168.113386 168.113386 0 0 1 23.785827 30.63937H1923.023622v8.667716h24.592126a120.944882 120.944882 0 0 1 5.845669 13.505512h-24.995275v8.667716z m-5.03937-99.981103h44.144882a7.055118 7.055118 0 0 1 5.240944 2.418898l3.225197 3.426772 5.03937-8.062993-3.426771-3.829921a8.667717 8.667717 0 0 0-6.450394-2.620472h-47.773228v8.667716z m63.899212 53.417323a111.470866 111.470866 0 0 0-6.853543 15.722835h-19.351181a69.341732 69.341732 0 0 0-14.916536-18.544882h31.244095l1.814173 4.837795 8.062992-2.015748zM2089.524409 171.338583l17.335434-3.225197a154.607874 154.607874 0 0 0-5.240945-22.576378h34.066141a6.651969 6.651969 0 0 1 5.44252 2.620472l2.822047 3.225197 5.240945-8.062992-3.426771-3.829921a8.869291 8.869291 0 0 0-6.248819-2.620473h-14.916536l-0.806299-22.576378c0-6.651969-0.604724-12.900787-1.209449-18.544882h13.707087a6.651969 6.651969 0 0 1 5.240945 2.620473l2.822047 3.426772 5.44252-8.062993-3.829922-3.628346a7.659843 7.659843 0 0 0-6.047244-3.023622h-18.343307l-1.612598-9.070866a124.573228 124.573228 0 0 0 32.453543-39.508662l-13.908661-13.303937-20.359056 44.749607c-8.062992-30.840945-23.181102-48.579528-42.733858-50.595276a136.062992 136.062992 0 0 1 29.026772 67.729134h-23.584252V95.748031h24.793701c1.007874 7.458268 1.612598 15.52126 2.015748 24.188977l0.806299 16.932283h-10.07874c-5.644094-15.11811-13.303937-25.801575-20.359055-29.833071 5.03937 21.165354 8.667717 42.330709 11.489763 64.302363z m121.751182-150.979528v7.458268h-35.880315v-7.458268h-16.125985v137.474016h16.125985v-7.256693h37.291338l2.620473 6.248819 16.125984-5.644095-4.031496-9.877165v-120.944882h-16.125984z m-35.880315 16.125984h35.880315v105.423622h-35.880315v-105.423622zM2313.877165 40.516535V109.858268h-19.149606v8.667716h20.15748l2.015748 5.240945 16.125985-4.233071-3.023622-9.272441V49.385827l21.366929 11.892913c-3.426772-13.102362-23.584252-36.888189-36.686614-41.322834l-8.466142 16.529133 7.659842 4.031496z m-5.03937 128.604725c10.885039 1.209449 26.406299-10.07874 31.04252-21.165354l-12.094488-14.311812-18.948032 35.678741z m81.83937-102.80315a96.755906 96.755906 0 0 0-45.35433-47.370079l32.251968 57.650394 13.102362-10.07874z m49.587402 17.335433v68.535433l3.225197 10.48189-16.125984 4.233071-1.814174-5.44252h-50.595275v5.44252H2358.425197v-83.250394h16.125984V89.700787h49.587402v-6.047244h16.125984z m-65.310236 69.140158h49.385826v-54.425197h-49.385826v54.425197z m66.922834-133.84567l-31.848819 58.658268c11.489764-3.023622 33.864567-24.592126 44.548032-45.35433l-12.699213-13.102363zM2551.533858 109.656693v-6.651969h25.801575l-14.513386 28.220473c10.885039 0 22.979528-8.062992 29.228347-20.359055l-8.466142-7.861418h38.299213l9.877165 32.050394 16.730709-8.264567a68.535433 68.535433 0 0 0-18.746457-23.785827h29.026772a7.256693 7.256693 0 0 1 5.442519 2.822048l2.822047 3.426771 5.240945-8.264567-3.628346-3.628346a7.861417 7.861417 0 0 0-6.248819-3.023622h-110.866142v-11.086614c0-35.477165-9.070866-61.480315-36.686614-64.503937 14.916535 18.544882 20.15748 35.880315 20.15748 67.124409V109.858268h16.529134z m-23.987401 38.500787h71.35748l-15.11811 22.173229c12.094488 1.411024 25.398425-4.031496 32.050393-14.311811l-9.27244-7.861418h48.377952a6.651969 6.651969 0 0 1 5.44252 2.822048l3.023622 3.426771 5.240945-8.062992-3.628347-4.031496a8.466142 8.466142 0 0 0-6.248818-2.822047h-131.023623V148.15748zM2778.507087 171.338583v-30.236221h9.67559a6.651969 6.651969 0 0 1 5.44252 2.822047l2.822047 3.225197 5.44252-8.062992-4.031496-4.031496a8.264567 8.264567 0 0 0-6.047244-2.620472h-13.303937v-6.047244a92.32126 92.32126 0 0 0 23.382677-37.694489l-14.110236-10.683464-9.272441 34.872441v-94.135433h-16.125985V99.779528c-6.651969-33.058268-18.746457-61.68189-28.422047-68.535434 7.458268 32.856693 12.094488 64.302362 15.11811 101.190552h-15.11811v8.667716h28.220473v30.236221h16.327559z m23.584252-21.568504h10.885039c4.63622-27.414173 12.094488-53.215748 20.762205-74.582677a243.905512 243.905512 0 0 0-46.362205-56.239371 93.530709 93.530709 0 0 1 54.022047 39.307087c16.125984-31.848819 35.477165-48.176378 51.60315-33.461417a181.014173 181.014173 0 0 0-42.129134 48.176378c13.102362 21.770079 24.390551 50.79685 32.856693 87.886614l-16.932284 4.837795-2.015748-7.256693h-62.488189v-8.667716z m39.508661-59.666142a312.440945 312.440945 0 0 0-21.366929 59.666142h42.330709c-5.644094-23.181102-12.699213-42.532283-20.96378-59.666142zM2992.176378 171.741732l16.125984-5.442519a175.974803 175.974803 0 0 0-19.552756-43.540158h8.062992v-103.407874h-16.125984v91.91811a68.333858 68.333858 0 0 0-27.817323-22.576378 328.566929 328.566929 0 0 1 39.307087 83.048819z m14.714961-60.069291l31.445669 5.44252a355.174803 355.174803 0 0 0-4.636221 52.812598h15.722835c0.806299-17.738583 2.015748-34.469291 4.636221-49.788976l44.951181 8.062992a7.861417 7.861417 0 0 1 5.03937 3.628346l2.418897 4.031496 6.047244-7.256693-3.225196-4.434645c-1.612598-2.015748-3.426772-3.628346-5.644095-3.829922l-47.773228-8.667716c6.853543-36.283465 20.15748-63.496063 40.919685-73.776378l6.047244 25.398425 2.822047-25.398425h6.047244c0-12.094488-3.225197-18.141732-13.505512-18.141732-31.04252 0-49.385827 43.338583-58.255118 88.894488l-32.251968-5.644095-0.806299 8.667717z m57.650393 57.045669c9.877165 0 23.382677-10.885039 29.228347-22.173228l-12.900788-12.699213-16.327559 34.872441zM3172.384252 43.338583l18.141732 5.240945v46.362204h-16.125984V103.811024h16.125984v45.75748h-18.141732v8.667716h41.12126c1.814173 0 3.628346 0.806299 5.442519 2.620473l3.023623 3.426772 5.240944-8.062993-3.628346-3.628346c-2.015748-2.015748-4.031496-3.023622-6.248819-3.023622h-10.885039v-45.75748h5.240945c1.814173 0 3.628346 0.806299 5.442519 2.822047l2.822048 3.225197 5.442519-8.062992-4.031496-3.829922a8.062992 8.062992 0 0 0-6.047244-2.620472h-8.869291v-42.129134l20.963779 6.047244a91.313386 91.313386 0 0 0-50.595275-34.469291l-4.434646 18.948031z m149.568504 41.927559V152.188976l3.023622 9.070867-16.327559 4.031496-1.612599-5.240945h-56.440944V166.299213h-16.125985v-80.831496h16.125985v6.047244h19.351181v-27.011024h-35.880315v-8.667717h35.880315v-27.212598H3225.19685v-8.667716h96.755906a8.062992 8.062992 0 0 1 6.047244 2.822047l4.031496 3.829921-5.44252 7.458268-3.225196-3.426772c-1.612598-1.814173-3.225197-2.015748-5.039371-2.015748h-32.251968V55.433071h27.011024c2.418898 0 4.031496 1.007874 6.047244 2.822047l3.628346 3.829921-5.240945 7.458268-3.225197-3.426772a6.047244 6.047244 0 0 0-4.837795-2.015748h-23.382677v27.212599h19.754331v-6.248819h16.125984z m-71.155906 66.519685h19.149607V130.015748h-19.149607v21.366929z m0-30.236221h19.149607v-21.568504h-19.149607v21.568504z m35.275591 30.236221h19.754331V130.015748h-19.754331v21.366929z m0-30.236221h19.754331v-21.568504h-19.754331v21.568504zM3396.535433 146.343307h42.330709c3.023622 8.062992 5.845669 16.125984 8.062992 24.592126l16.125984-4.031496c-2.015748-6.853543-4.031496-13.707087-6.450394-20.56063h79.017323a7.458268 7.458268 0 0 1 5.240945 2.822047l2.822047 3.426772 5.44252-8.062992-3.829921-3.829921a8.667717 8.667717 0 0 0-6.047244-3.023622h-86.072441a184.23937 184.23937 0 0 0-8.466142-19.351182h69.744882l2.015748 5.44252 16.125984-4.233071-3.225197-9.272441v-75.9937c0-8.062992-2.015748-15.52126-12.094488-15.52126h-17.537008l-5.845669 14.110236h19.351181v19.552756h-68.535433v-33.662992h-16.125984v74.582677a65.914961 65.914961 0 0 0-36.283465-26.00315c17.335433 19.351181 32.453543 43.540157 43.338583 70.551181h-39.105512V146.141732z m48.176378-56.844094h68.535433v20.15748h-68.535433v-20.15748z m0-28.422048h68.535433v19.754331h-68.535433v-19.754331zM3648.503937 107.237795c33.864567-37.492913 22.777953-65.108661 7.458268-70.148031h-12.497638l-5.44252 12.094488h8.466142c9.675591 3.225197 14.110236 27.817323-6.248819 56.037795l12.094488 49.990551h-19.552756v-136.264567h-16.125984v149.770079h16.125984v-4.837795h21.568504l1.612599 6.651968 18.141732-7.055118-25.6-56.440945z m26.00315-68.938582l6.651968 1.411023v129.007874h16.125984v-6.047244h42.532284l2.418897 6.047244 16.125985-6.047244-4.031496-9.070866V89.700787h-16.125985v5.84567h-15.924409c3.628346-10.885039 8.062992-20.762205 13.505512-30.236221l17.335433 20.762205 11.892913-13.505512a52.812598 52.812598 0 0 0-25.398425-13.303937c8.062992-12.094488 18.141732-22.979528 30.63937-32.050394-18.141732-21.568504-43.137008 0.806299-56.440945 68.333859h-16.529134v-51.401575l23.987402 6.047244a70.954331 70.954331 0 0 0-40.516535-30.63937l-6.248819 18.948031z m22.777952 95.143307h40.919685V154.204724h-40.919685v-20.762204z m0-29.429922h40.919685v20.762205h-40.919685v-20.762205zM3880.314961 167.710236l16.327559-9.272441c-16.730709-40.113386-47.370079-68.938583-63.496063-69.140157 17.537008 20.15748 32.655118 44.346457 46.966929 78.412598z m38.299212-60.472441c-16.125984-26.607874-33.662992-49.184252-52.611023-68.132283l81.03307 11.892913-16.529133 28.825197c13.505512-4.031496 37.492913-28.825197 47.974803-47.370079l-13.102362-13.505512-14.714961 25.6a436.207874 436.207874 0 0 0-97.159055-25.398425l-4.031496 17.738583 7.055118 0.806299 46.765354 80.629921 15.319685-11.086614z m45.555906-9.474015c-19.351181 10.280315-38.299213 48.579528-42.330709 74.179527a179.401575 179.401575 0 0 1 63.899213-64.907087c-3.023622-12.094488-13.505512-13.505512-21.568504-9.27244zM4058.103937 135.055118h97.36063a7.256693 7.256693 0 0 1 5.44252 2.620473l2.822047 3.426771 5.44252-8.062992-4.031497-3.829921a8.667717 8.667717 0 0 0-6.047244-2.822047h-100.787401v8.667716z m7.458268 28.018898h117.51811l1.814173 5.644094 16.125984-4.233071-3.023622-10.280315v-119.130708c0-8.062992-2.015748-15.52126-12.094488-15.52126h-19.754331l-5.442519 13.908661h21.165354v121.146457h-116.308661v8.466142z m71.35748-117.92126v5.644094h-49.990551v-5.845669h-16.125984v64.302362h16.125984v-6.047244h51.401575l2.217322 6.047244 16.32756-6.047244-3.628347-8.869291v-49.184252h-16.125984z m-49.990551 14.110236h49.990551v35.477165h-49.990551v-35.27559zM3324.371654 277.971654l32.453543 35.880315 27.817323 71.962204h-75.187402l-25.801575-64.907086-34.872441-42.935433zM3660.598425 447.697638l16.730709 132.233071h60.472441l6.047244 48.176378h-60.270866l7.055118 54.828346h-75.993701l-7.055118-54.828346h-167.105512l7.055118 54.828346h-75.792126l-7.055118-54.828346h-75.590551l-6.047244-48.176378h75.388976l-16.932283-132.233071h-84.661418l-6.047244-48.176378h671.647244l6.047245 48.176378h-268.094489z m-75.993701 0h-167.307086l17.133858 132.233071h167.105512l-16.932284-132.233071zM3638.425197 277.971654h90.103937l-46.362205 46.966929-17.738583 60.87559h-75.792126l18.948032-64.100787zM4268.951181 641.209449l18.343307 41.725984h-62.488189l-18.141732-41.725984zM3969.411024 420.283465l-8.869292-67.527559h207.218898l-4.434646-33.461418-16.529134-41.322834h77.807874l13.707087 37.089763 9.474016 74.179528h-26.204725l10.280315 82.040945H3969.007874l-4.63622-36.48504h186.859842l-5.845669-45.555905h-93.530709l4.031496 31.244094zM4116.15748 277.971654l13.908662 38.299212h-169.322835l-9.67559-38.299212zM4277.215748 626.292913h-141.505512l41.52441 60.069292h-77.20315l-28.623622-41.52441-7.256693 38.299213h-77.807874l7.659843-41.927559h74.985826l-10.481889-14.916536h-76.598426l-5.03937-39.508661h55.029922l-11.892914-16.529134h-247.735433l-5.03937-39.508661h225.76378l-31.244095-45.555906h77.20315l31.244094 45.555906h80.428347l17.940157-45.555906h77.807874l-18.141732 45.555906h40.31496l5.039371 39.508661h-176.377953l11.892913 16.730709h163.074016zM3771.666142 277.971654l22.173228 48.377952 45.354331 311.433071h55.634645l-40.71811-315.666142-16.125984-44.144881h71.76063l14.311811 41.524409 46.362205 361.222047h-194.922835l-50.998425-348.724409-22.979528-54.022047z"  horiz-adv-x="4300" />

    
    <glyph glyph-name="dingdanjianying" unicode="&#59078;" d="M679.455388 895.271861c-4.095272 0-22.387485 1.638109-68.527545 0H206.588028a136.509053 136.509053 0 0 1-136.509053-134.597926v-754.076009a136.509053 136.509053 0 0 1 136.509053-134.597926h610.195467a136.509053 136.509053 0 0 1 136.509053 134.597926V626.076008zM277.0267 569.56126h247.354404a22.387485 22.387485 0 0 0 0-44.774969H276.753682a22.387485 22.387485 0 0 0 0 44.774969zM687.918949 103.51935400000002H288.49346c-18.565231 0-33.308209 10.374688-33.308209 23.206539s15.289014 23.206539 33.308209 23.206539h399.425489c18.292213 0 33.308209-10.374688 33.308209-23.206539s-15.015996-23.206539-33.308209-23.206539z m0 232.611426H288.49346c-18.565231 0-33.308209 10.10167-33.308209 22.387485s16.108068 23.479557 33.308209 23.479557h399.425489c18.292213 0 33.308209-10.10167 33.308209-22.387485s-15.015996-22.660503-33.308209-22.660503z m59.790965 289.945228H752.62424c-31.943118 0-76.991106 30.30501-76.991106 67.162454V832.477696l212.954123-208.312814z"  horiz-adv-x="1024" />

    
    <glyph glyph-name="zixun" unicode="&#58910;" d="M513.5 882C788.262 882 1011 674.484 1011 418.5S788.262-45 513.5-45c-47.829 0-94.081 6.288-137.857 18.025l-162.771-87.895c-17.494-9.448-39.335-2.925-48.783 14.57a36 36 0 0 0-4.15 13.575l-19.582 198.659C62.961 193.639 16 300.96 16 418.5 16 674.484 238.738 882 513.5 882zM280 493c-41.421 0-75-33.579-75-75s33.579-75 75-75 75 33.579 75 75-33.579 75-75 75z m234 0c-41.421 0-75-33.579-75-75s33.579-75 75-75 75 33.579 75 75-33.579 75-75 75z m233 0c-41.421 0-75-33.579-75-75s33.579-75 75-75 75 33.579 75 75-33.579 75-75 75z"  horiz-adv-x="1024" />

    
    <glyph glyph-name="icon3" unicode="&#59007;" d="M29.244045 139.273253c-22.213931-22.217001-22.213931-58.233286 0.002047-80.449263 22.213931-22.215978 58.235332-22.215978 80.447217-0.002047l0.002047 0.002047 0 0 359.679849 359.676779c23.509437 23.511483 61.629639 23.511483 85.142146 0L914.248364 58.768731c22.217001-22.217001 58.234309-22.217001 80.449263-0.002047 22.217001 22.215978 22.217001 58.235332 0 80.45131-0.01842 0.016373-0.035816 0.032746-0.056282 0.053212l-369.178177 369.177154c-62.695924 62.695924-164.348092 62.695924-227.046063 0L29.246091 139.273253l0 0L29.244045 139.273253zM967.066313 726.129124l-0.002047 0 0 0.002047L56.880475 726.131171l0-0.002047c-31.417547-0.002047-56.880475-25.469068-56.880475-56.886615 0-31.413454 25.462928-56.883545 56.880475-56.885592l0 0 910.184815 0 0 0 0.002047 0c31.4155 0 56.883545 25.470091 56.883545 56.885592C1023.949858 700.662103 998.482837 726.129124 967.066313 726.129124z"  horiz-adv-x="1040" />

    
    <glyph glyph-name="54" unicode="&#59020;" d="M505.856 599.552c149.504 0 270.848-121.344 270.848-270.848 0-9.728-0.512-19.968-1.536-29.184-30.72-14.336-64-25.6-98.816-33.792-30.72-7.168-63.488-12.288-97.28-14.848-8.192 15.36-24.576 25.6-43.008 25.6h-54.272c-26.624 0-48.64-22.016-48.64-48.64s22.016-48.64 48.64-48.64h54.272c19.968 0 37.376 12.288 44.544 29.184 36.352 3.072 71.68 8.192 104.96 15.872 27.648 6.656 53.76 14.336 78.848 24.576-34.304-110.592-137.216-190.976-259.072-190.976-149.504 0-270.848 121.344-270.848 270.848s121.344 270.848 271.36 270.848zM507.904 720.384c-108.544 0-206.336-44.032-277.504-115.2-45.568-45.568-79.872-101.888-98.816-165.376h-13.824c-31.744 0-57.856-26.112-57.856-57.856v-90.112c0-31.744 26.112-57.856 57.856-57.856h75.776v198.144c16.384 49.664 44.032 93.696 80.384 129.536 59.904 59.904 142.848 97.28 234.496 97.28s174.592-36.864 234.496-97.28c34.304-34.304 61.44-76.8 77.824-123.392v-204.8h75.264c31.744 0 57.856 26.112 57.856 57.856v90.624c0 31.744-26.112 57.856-57.856 57.856h-11.776c-18.944 63.488-53.248 119.808-98.816 165.376-70.656 71.168-168.96 115.2-277.504 115.2z"  horiz-adv-x="1024" />

    
    <glyph glyph-name="shangyiye" unicode="&#58901;" d="M421.228666 381.042029L784.268842 744.082205a85.577949 85.577949 0 0 1 0 121.005866 85.532789 85.532789 0 0 1-120.983285 0L239.731158 441.556251a85.577949 85.577949 0 0 1 0-121.005865l423.554399-423.464079a85.532789 85.532789 0 1 1 120.983285 120.983285L421.228666 381.042029z"  horiz-adv-x="1024" />

    
    <glyph glyph-name="xiayiye" unicode="&#58907;" d="M784.246262 441.556251L360.714443 865.11065a85.577949 85.577949 0 0 1-120.983285-121.005865l363.062756-363.040176-363.085336-362.995017a85.577949 85.577949 0 0 1 120.983285-120.983285l423.554399 423.464079a85.510209 85.510209 0 0 1 0 121.005865z"  horiz-adv-x="1024" />

    
    <glyph glyph-name="jia1" unicode="&#59157;" d="M901.1 354.5H571.6V1c0-32.9-26.7-59.6-59.6-59.6-32.9 0-59.5 26.7-59.6 59.6V354.5H122.9c-32.5 0-58.9 26.4-58.9 58.9s26.4 58.9 58.9 58.9h329.5V767c0 32.9 26.7 59.6 59.6 59.6 32.9 0 59.5-26.7 59.6-59.6v-294.6h329.5c32.5 0 58.9-26.4 58.9-58.9 0-32.6-26.4-59-58.9-59z"  horiz-adv-x="1024" />

    
    <glyph glyph-name="gongzuojingyan" unicode="&#58906;" d="M941.526161 697.340388l-219.729571 0L721.79659 773.794239c0 45.751911-37.323927 82.473839-82.473839 82.473839L384.677249 856.268078c-45.751911 0-82.473839-37.323927-82.473839-82.473839L302.20341 697.340388 82.473839 697.340388C37.323927 697.340388 0 660.016461 0 614.866549l0-620.058789c0-45.751911 37.323927-82.473839 82.473839-82.473839l858.450323 0c45.751911 0 82.473839 37.323927 82.473839 82.473839l0 620.058789C1024 660.016461 986.676073 697.340388 941.526161 697.340388zM356.383304 773.794239c0 15.651969 12.641975 28.895944 28.895944 28.895944l254.645503 0c15.651969 0 28.895944-12.641975 28.895944-28.895944L668.820694 697.340388 356.383304 697.340388 356.383304 773.794239zM352.771311 265.707231c15.049971 0 27.089947 12.039976 27.089947 27.089947l0 40.333921L644.138742 333.131099l0-40.333921c0-15.049971 12.039976-27.089947 27.089947-27.089947 15.049971 0 27.089947 12.039976 27.089947 27.089947l0 40.333921 272.103469 0 0-338.925338c0-15.651969-12.641975-28.895944-28.895944-28.895944L82.473839-34.690182c-15.651969 0-28.895944 12.641975-28.895944 28.895944L53.577895 333.131099l272.103469 0 0-40.333921C325.681364 277.747208 338.323339 265.707231 352.771311 265.707231zM671.228689 446.908877c-15.049971 0-27.089947-12.039976-27.089947-27.089947l0-32.507937L379.861258 387.310994l0 32.507937c0 15.049971-12.039976 27.089947-27.089947 27.089947s-27.089947-12.039976-27.089947-27.089947l0-32.507937L54.179894 387.310994 54.179894 614.866549c0 15.651969 12.641975 28.895944 28.895944 28.895944l858.450323 0c15.651969 0 28.895944-12.641975 28.895944-28.895944l0-227.555556L698.318636 387.310994l0 32.507937C698.318636 434.868901 685.676661 446.908877 671.228689 446.908877z"  horiz-adv-x="1024" />

    
    <glyph glyph-name="fuwu" unicode="&#59127;" d="M880.808 123.406C840.1 15.081 735.552-62 613-62H474c-14.912 0-27 12.088-27 27v74c0 14.912 12.088 27 27 27h139c14.912 0 27-12.088 27-27v-33.126c75.81 13.834 139.085 63.584 171.544 130.972C783.014 154.459 764 186.009 764 222V348c0 44.037 28.465 81.426 68 94.77v2.73C832 622.507 688.507 766 511.5 766S191 622.507 191 445.5v-2.398c40.054-13.047 69-50.694 69-95.102v-126c0-55.228-44.772-100-100-100S60 166.772 60 222V348c0 43.665 27.986 80.794 67 94.427V445.5C127 657.853 299.147 830 511.5 830S896 657.853 896 445.5v-2.73c39.535-13.344 68-50.733 68-94.77v-126c0-49.5-35.966-90.6-83.192-98.593zM864 384c-19.882 0-36-16.118-36-36v-126c0-19.882 16.118-36 36-36s36 16.118 36 36V348c0 19.882-16.118 36-36 36z m-704 0c-19.882 0-36-16.118-36-36v-126c0-19.882 16.118-36 36-36s36 16.118 36 36V348c0 19.882-16.118 36-36 36z"  horiz-adv-x="1024" />

    
    <glyph glyph-name="jiaoyu" unicode="&#58977;" d="M1081.372587 485.190476c24.821143 14.679773 39.220767 37.483848 39.220767 62.641169s-14.231536 47.961396-39.220767 62.641168l-455.801347 268.942405C588.311511 901.490907 532.281843 901.490907 494.854025 879.471248L39.220767 610.472813c-24.989232-14.679773-39.220767-37.483848-39.220767-62.641168s14.231536-47.961396 39.220767-62.641169l121.920557-72.054152 1.344712-365.98579a118.838925 118.838925 0 0 1 71.213708-108.585496A799.095121 799.095121 0 0 1 554.69371-127.998207a778.812381 778.812381 0 0 1 343.181715 79.394039 95.250435 95.250435 0 0 1 53.004066 84.044502l2.913542 374.110091zM538.333047 805.792235a53.172155 53.172155 0 0 0 43.92726 0l437.031408-257.736471-437.031408-257.736472a53.172155 53.172155 0 0 0-43.92726 0L233.419596 469.838347a42.750636 42.750636 0 0 1-16.808901 10.029311L101.24561 547.831645z m326.877082-769.455427a8.852687 8.852687 0 0 0-4.818552-8.012242A684.906658 684.906658 0 0 0 554.69371-42.440904a713.593848 713.593848 0 0 0-286.815869 59.447477 33.281623 33.281623 0 0 0-19.666413 30.480139l-1.288682 315.054822 247.931279-146.629641a137.832983 137.832983 0 0 1 130.885304 0l241.992135 142.819623zM1076.441976 442.327781a42.750636 42.750636 0 0 1-42.750636-42.750637v-370.748311a42.806666 42.806666 0 0 1 85.557302 0V399.577144a42.806666 42.806666 0 0 1-42.806666 42.750637z"  horiz-adv-x="1120" />

    
    <glyph glyph-name="tuandui" unicode="&#58973;" d="M655.39072 404.1216l-19.01568 7.552 16.128 12.58496c55.53152 43.34592 87.38304 108.11904 87.38304 177.70496 0 124.6464-102.1184 226.05312-227.6352 226.05312-125.52192 0-227.64032-101.40672-227.64032-226.05312 0-69.58592 31.85664-134.35904 87.39328-177.70496l16.128-12.58496-19.01568-7.552c-148.26496-58.85952-244.06528-198.97856-244.06528-356.98176v-79.24736c0-15.39072 12.63104-27.91424 28.16-27.91424h718.08c15.52384 0 28.16 12.52352 28.16 27.91424v79.24736c0 157.99808-95.80032 298.12736-244.06016 356.98176zM335.49824 602.27584c0 96.85504 79.29344 175.65696 176.75264 175.65696 97.46944 0 176.75776-78.80192 176.75776-175.65696s-79.28832-175.65696-176.75776-175.65696c-97.4592 0-176.75264 78.80192-176.75264 175.65696z m514.45248-611.10784H174.52032V43.776c0 187.84768 148.69504 340.66944 337.76128 340.66944 189.01504 0 337.66912-152.82176 337.66912-340.66944v-52.608zM920.54528 58.8544c-0.5376 17.92512-2.28352 32.57856-5.3248 50.08384h54.63552v45.52192c0 122.48576-77.85472 228.96128-189.33248 258.93888l-7.36768 1.90464c-12.09344 4.50048-20.18816 15.6416-20.18816 27.85792 0 11.97568 7.59808 22.784 19.35872 27.53024l0.68608 0.30208c46.87872 22.66112 77.16864 72.67328 77.16864 127.41632 0 59.74016-52.08064 110.87872-103.06048 130.72384a271.58528 271.58528 0 0 1-33.82272 68.69504c97.9456-6.61504 175.72352-93.54752 175.72352-199.45472 0-49.45408-17.34144-97.0496-48.82944-134.00064l-10.33728-12.12928 13.62944-7.51104c101.92896-56.2176 165.21216-167.43936 165.15584-290.25792v-65.70496c0-16.49152-12.63616-29.91104-28.15488-29.91104h-59.93984zM38.4 58.85952c-15.52384 0-28.16 13.40928-28.16 29.88544v65.61792c0 122.69568 63.3088 233.79456 165.2224 289.94048l13.62944 7.50592-10.33216 12.11392c-31.488 36.91008-48.83456 84.44928-48.83456 133.85728 0 105.75872 77.77792 192.57856 175.7184 199.1936a272.31232 272.31232 0 0 1-33.8432-68.62336c-48.8192-19.17952-96.41984-68.90496-96.41984-130.57024 0-54.66624 30.28992-104.62208 77.16864-127.26784l0.68096-0.30208c11.75552-4.75648 19.3536-15.54944 19.3536-27.50464 0-12.2112-8.0896-23.34208-20.1728-27.83744l-7.26016-1.85856c-111.60064-29.952-189.45536-136.30464-189.45536-258.65216v-45.48096h47.9744c-3.0464-17.56672-4.79744-32.21504-5.33504-50.02752H38.4z"  horiz-adv-x="1024" />

    
    <glyph glyph-name="ziyuanxhdpi" unicode="&#58955;" d="M512.269015-128a511.992548 511.992548 0 1 0 511.73106 511.73106 512.515523 512.515523 0 0 0-511.73106-511.73106z m0 971.426105a459.695045 459.695045 0 1 1 459.433557-459.695045A460.21802 460.21802 0 0 1 512.269015 843.426105zM625.236897 616.041791m17.289056-19.617485l0 0q17.289056-19.617486-2.32843-36.906542l-221.089062-194.847658q-19.617486-17.289056-36.906541 2.32843l0 0q-17.289056 19.617486 2.32843 36.906541l221.089062 194.847658q19.617486 17.289056 36.906541-2.328429ZM659.589773 190.649735m-17.289056-19.617485l0 0q-17.289056-19.617486-36.906541-2.32843l-221.089061 194.847658q-19.617486 17.289056-2.32843 36.906542l0 0q17.289056 19.617486 36.906541 2.328429l221.089062-194.847658q19.617486-17.289056 2.328429-36.906541Z"  horiz-adv-x="1024" />

    
    <glyph glyph-name="ziyuanxhdpi1" unicode="&#58957;" d="M512.269015-128a511.992548 511.992548 0 1 0 511.73106 511.73106 512.515523 512.515523 0 0 0-511.73106-511.73106z m0 971.426105a459.695045 459.695045 0 1 1 459.433557-459.695045A460.21802 460.21802 0 0 1 512.269015 843.426105zM659.526718 386.789189m-17.289056-19.617485l0 0q-17.289056-19.617486-36.906541-2.32843l-221.089062 194.847658q-19.617486 17.289056-2.32843 36.906542l0 0q17.289056 19.617486 36.906542 2.328429l221.089061-194.847658q19.617486-17.289056 2.32843-36.906541ZM625.322329 419.958431m17.289055-19.617486l0 0q17.289056-19.617486-2.328429-36.906541l-221.089062-194.847658q-19.617486-17.289056-36.906541 2.328429l0 0q-17.289056 19.617486 2.328429 36.906542l221.089062 194.847658q19.617486 17.289056 36.906541-2.32843Z"  horiz-adv-x="1024" />

    
    <glyph glyph-name="dianhua1" unicode="&#58953;" d="M839.78836 781.018225C742.26455 846.034098 623.068783 870.114051 504.475015 849.044092c-15.651969-3.009994-25.885949-17.457966-22.875955-33.109935 1.203998-7.223986 5.417989-13.845973 11.437978-18.661964 6.019988-4.213992 13.845973-6.019988 21.069959-4.815991 104.145797 18.059965 208.893592-2.407995 294.377425-59.597884 85.483833-56.587889 141.469724-141.469724 158.92769-238.993533 2.407995-13.845973 14.447972-23.477954 28.293945-23.477954 1.805996 0 3.009994 0 4.815991 0.601999 15.651969 3.009994 25.885949 17.457966 22.875955 33.109935C1003.53204 617.876543 938.516167 716.002352 839.78836 781.018225zM530.360964 650.986479c60.801881 10.835979 121.603762-1.203998 171.569665-34.313933 49.363904-32.507937 81.87184-81.87184 92.10582-138.45973 2.407995-13.845973 14.447972-23.477954 28.293945-23.477954 1.805996 0 3.009994 0 4.815991 0.601999 15.651969 3.009994 25.885949 17.457966 22.875955 33.109935-12.641975 72.239859-54.179894 134.847737-116.787772 175.783657-62.005879 40.93592-137.857731 56.587889-212.505585 43.343915-15.651969-3.009994-25.885949-17.457966-22.875955-33.109935C500.261023 658.812463 514.708995 647.976484 530.360964 650.986479zM886.744268 219.353322c-30.70194 21.671958-62.607878 41.537919-90.901822 55.985891-45.751911 24.079953-66.219871 27.089947-77.05585 27.089947-23.477954 0-43.945914-12.039976-60.199882-36.119929-10.23398-15.049971-18.059965-32.507937-25.283951-49.363904-3.611993-7.825985-9.631981-22.875955-14.447972-30.70194-9.029982 3.009994-30.70194 12.039976-69.229865 38.527925-37.925926 25.885949-79.463845 59.597884-110.767784 90.299824-30.70194 31.303939-64.413874 72.841858-90.299824 111.369782-26.487948 39.129924-35.517931 60.199882-38.527925 69.229865 7.825985 4.815991 22.273956 10.835979 31.303939 15.049971 16.855967 7.223986 34.313933 15.049971 48.761905 25.283951 23.477954 16.253968 35.517931 36.721928 35.517931 60.199882 0 11.437978-3.009994 31.303939-27.089947 77.657848-14.447972 27.691946-34.313933 60.199882-55.985891 90.901822-16.253968 22.875955-40.333921 55.985891-66.219871 82.473839-30.099941 31.303939-52.975897 45.149912-75.249853 45.149912-51.1699 0-107.155791-68.025867-129.429747-96.921811C50.567901 765.968254 0 691.3204 0 620.284539c0-66.219871 43.343915-151.101705 80.065844-210.699588 48.761905-78.861846 115.583774-164.345679 189.027631-239.595532l24.079953-24.079953c75.249853-73.443857 160.131687-140.867725 238.993533-189.62963 59.597884-36.721928 143.877719-80.065844 210.09759-80.065844 71.035861 0 145.683715 50.567901 174.579659 72.239859 28.895944 21.671958 96.921811 78.259847 96.921811 129.429747 0 22.273956-13.845973 45.751911-45.149912 75.851852C942.730159 178.417402 909.620223 203.099353 886.744268 219.353322zM267.889477 555.870664c-22.273956-15.049971-33.109935-33.109935-32.507937-54.781893 0-9.631981 1.203998-39.129924 52.975897-115.583774 28.293945-41.537919 65.015873-87.28983 99.329806-122.205761 34.313933-33.109935 79.463845-70.433862 121.001764-98.727807 76.453851-52.373898 105.951793-52.975897 116.787772-52.975897 21.069959 0 39.129924 11.437978 53.577895 33.109935 8.427984 12.641975 15.651969 28.895944 21.671958 43.945914 4.815991 11.437978 10.23398 23.477954 15.049971 31.905938 2.407995 4.213992 4.213992 6.621987 5.417989 7.825985 5.417989-1.203998 17.457966-5.417989 40.333921-17.457966 23.477954-12.641975 51.771899-29.497942 78.259847-48.159906 66.219871-45.751911 93.911817-77.05585 100.533804-87.28983-1.805996-3.611993-6.019988-11.437978-16.253968-23.477954-13.243974-15.651969-32.507937-32.507937-52.975897-48.159906-46.955908-34.915932-95.115814-55.383892-128.22575-55.383892-37.925926 0-100.533804 25.283951-171.569665 69.229865-74.045855 45.751911-154.713698 109.563786-226.351558 179.39565l-22.875955 23.477954c-69.831864 71.63786-133.643739 152.305703-179.39565 226.953557-43.945914 71.63786-69.229865 134.245738-69.229865 172.171664 0 33.711934 20.46796 81.269841 55.383892 128.827748 15.049971 21.069959 32.507937 39.731922 47.557907 52.975897 12.039976 10.23398 19.865961 15.049971 23.477954 16.253968 10.23398-6.621987 41.537919-34.313933 87.28983-100.533804 18.661964-27.089947 35.517931-55.383892 48.159906-78.861846 12.039976-22.875955 16.253968-34.915932 17.457966-40.333921-1.203998-1.203998-3.611993-3.009994-7.825985-5.417989-9.029982-5.417989-21.069959-10.835979-33.109935-15.651969C296.183422 570.920635 281.133451 564.298648 267.889477 555.870664zM508.689006 513.730747c6.019988-4.213992 13.845973-6.019988 21.069959-4.815991 30.70194 5.417989 61.40388-0.601999 86.687831-17.457966 24.681952-16.253968 40.93592-40.93592 45.751911-69.229865 2.407995-13.845973 14.447972-23.477954 27.691946-23.477954 1.805996 0 3.611993 0 4.815991 0.601999 15.651969 3.009994 25.885949 17.457966 22.875955 33.109935-7.825985 43.945914-33.109935 81.87184-71.035861 106.553792-37.323927 24.681952-83.075838 34.313933-128.22575 25.885949-15.651969-3.009994-25.885949-17.457966-22.875955-33.109935C498.455026 524.566725 502.669018 517.944738 508.689006 513.730747z"  horiz-adv-x="1024" />

    
    <glyph glyph-name="dingwei" unicode="&#58940;" d="M923.63904 471.17056c0 231.85792-184.29568 419.80544-411.64416 419.80544-227.34208 0-411.63904-187.94752-411.63904-419.80544 0-7.35872 0.7104-14.47168 1.08288-21.67552-0.33792-3.5584-1.08288-6.99008-1.08288-10.64192 0-258.38592 379.97952-551.06688 379.97952-551.06688s31.66336-24.21504 63.328 0c31.66336 24.24192 379.97952 292.68096 379.97952 551.06688 0 3.65184-0.74496 7.08352-1.08288 10.64192C922.92864 456.69888 923.63904 463.81184 923.63904 471.17056L923.63904 471.17056zM511.99488 309.664c-87.44832 0-158.31936 72.29312-158.31936 161.50656 0 89.15072 70.86976 161.4464 158.31936 161.4464 87.45344 0 158.32832-72.29568 158.32832-161.4464C670.3232 381.95712 599.44832 309.664 511.99488 309.664L511.99488 309.664zM511.99488 309.664"  horiz-adv-x="1024" />

    
    <glyph glyph-name="iconset0416" unicode="&#59175;" d="M974.933333 398.933333l-213.333333 213.333333C757.333333 616.533333 753.066667 618.666667 746.666667 618.666667c-12.8 0-21.333333-8.533333-21.333333-21.333333 0-6.4 2.133333-10.666667 6.4-14.933333l177.066667-177.066667L64 405.333333c-12.8 0-21.333333-8.533333-21.333333-21.333333s8.533333-21.333333 21.333333-21.333333l844.8 0-177.066667-177.066667C727.466667 181.333333 725.333333 177.066667 725.333333 170.666667c0-12.8 8.533333-21.333333 21.333333-21.333333 6.4 0 10.666667 2.133333 14.933333 6.4l213.333333 213.333333c4.266667 4.266667 6.4 8.533333 6.4 14.933333S979.2 394.666667 974.933333 398.933333z"  horiz-adv-x="1024" />

    
    <glyph glyph-name="banquandengji_huaban1" unicode="&#58881;" d="M541.648001 716.786588A335.989645 335.989645 0 1 0 302.949243 618.296527a337.662178 337.662178 0 0 0 238.856545 98.39539zM758.382939 596.206478A306.515208 306.515208 0 0 1 325.039292 162.799716a304.306204 304.306204 0 0 1 433.469876 0 304.400875 304.400875 0 0 1 0 433.469876z m0 0M653.234306 545.998952q46.010416-35.785879 54.530864-96.565071h-44.779685q-8.520447 43.738297-43.170267 68.16358-32.94573 22.721193-80.660236 22.721193-70.435699 0-109.061728-49.418595Q394.465161 444.731856 394.465161 369.341675q0-76.684027 35.217849-120.422325Q467.04675 201.741317 538.018922 201.741317q48.282536 0 82.364326 25.561343 36.353909 27.833462 48.282535 80.092206h44.874357q-13.632716-71.571759-63.619341-110.197788-47.146476-36.921939-111.901877-36.921939-94.292952 0-144.847607 62.483282-45.442387 55.666923-45.442387 146.551696t46.578447 148.318901Q444.956701 581.784832 539.62834 581.784832q67.690222 0 113.605966-35.78588z"  horiz-adv-x="1132" />

    
    <glyph glyph-name="jishuhuazhuanliyuzixun_huaban1" unicode="&#58882;" d="M541.648001 716.786588A335.989645 335.989645 0 1 0 302.949243 618.296527a337.662178 337.662178 0 0 0 238.856545 98.39539zM758.382939 596.206478A306.515208 306.515208 0 0 1 325.039292 162.799716a304.306204 304.306204 0 0 1 433.469876 0 304.400875 304.400875 0 0 1 0 433.469876z m0 0M408.949921 561.209529h165.864711q139.735339 0 139.735339-119.286265 0-120.422324-140.303369-120.422324h-118.718234v-165.864711h-46.578447z m46.578447-40.330118v-159.048353h116.446115q48.282536 0 72.58159 19.881044 23.289223 19.881044 23.289223 60.211162 0 41.466178-23.857253 59.075103-23.289223 19.881044-72.139789 19.881044z"  horiz-adv-x="1132" />

    
    <glyph glyph-name="shangbiaolingjunren_huaban1" unicode="&#58883;" d="M302.949243 357.72862a83.910629 83.910629 0 0 0 21.395791-2.777034V697.189559A21.490462 21.490462 0 0 1 302.949243 718.743135 21.522019 21.522019 0 0 1 281.616568 697.189559v-342.237973a84.131529 84.131529 0 0 0 21.332675 2.777034zM302.949243 192.021696a82.774569 82.774569 0 0 0-21.427347 2.808592v-129.542359A21.490462 21.490462 0 0 1 302.949243 43.955253a21.458905 21.458905 0 0 1 21.395791 21.39579v129.479245a82.522112 82.522112 0 0 0-21.395791-2.808592zM543.762335 554.203828a82.048753 82.048753 0 0 0 20.575303-2.587692V697.189559a21.522019 21.522019 0 0 1-21.553577 21.553576 21.490462 21.490462 0 0 1-21.269561-21.553576v-146.141453a83.405714 83.405714 0 0 0 22.247835 3.155722zM543.762335 388.496903a83.405714 83.405714 0 0 0-22.247835 3.155721v-326.364695A21.458905 21.458905 0 0 1 542.784061 43.955253a21.490462 21.490462 0 0 1 21.427348 21.39579V391.084594a82.048753 82.048753 0 0 0-20.449074-2.587691zM782.808222 454.672378a82.364326 82.364326 0 0 0 21.39579-2.808592V697.189559a21.490462 21.490462 0 0 1-21.39579 21.427348 21.490462 21.490462 0 0 1-21.39579-21.427348v-245.452002a82.364326 82.364326 0 0 0 21.39579 2.934821zM782.808222 288.965453a83.721286 83.721286 0 0 0-21.39579 2.777035v-226.454559a21.458905 21.458905 0 0 1 21.39579-21.395791 21.458905 21.458905 0 0 1 21.39579 21.395791v226.454559a83.721286 83.721286 0 0 0-21.39579-2.777035z"  horiz-adv-x="1132" />

    
    <glyph glyph-name="zhuanlishenqing_huaban1" unicode="&#58884;" d="M550.420907 704.289932c-2.840149 3.755308-4.323338 0-4.323339 0L463.891029 29.123363l88.738883-1.861876zM404.279454 168.290672l-6.311443 40.708804-21.774477-33.355974-44.180098 1.293846 28.022805-29.474437-17.640482-38.846929 39.446517 20.03883 29.474436-28.054362-2.051218 42.191994 38.342013 17.356467-43.548954 8.078646zM480.931924 419.486086l-44.590342-14.011403-20.701531 39.257173-13.506488-56.234953-47.682948-24.740855 37.868655-8.709791-8.804462-56.802983 36.827267 47.588277 43.548954-13.47493-15.589263 44.180098z m-204.806312-94.671639l-24.803969-33.482203-32.1568-5.333169 19.660144-21.458904-18.11384-36.827268 32.125242 25.435114 22.752751-22.090049 1.577861 35.43875 28.022805 22.784308-29.537552 1.388517z m59.169775 115.814971l14.48476 18.113841-18.650312-4.544239-9.877408 17.419581L312.416407 444.731856l-24.267496-12.054855 16.567536-4.039323-4.133995-24.109711 19.660144 22.090049 19.691701-7.321273z m84.983574 95.081883l9.467164-5.396284 4.165552 13.47493L448.112423 555.182101l-11.360597 1.988105v10.697895l-11.960184-14.106074-16.062621-2.682364 5.680298-10.63478-9.84585-14.074517z m403.932324 99.689235s-69.173411 44.180098-200.072729 13.190915c0 0 167.253228 15.778606 209.508336-111.933434 0 0 29.127307-129.700145-70.530371-229.420937 0 0-72.076674-79.965977-120.138309-99.657678L579.011742 718.269777s-5.080711 8.425776-5.080712-4.733582v-678.827206s77.851644 27.233875 85.204475 40.456347l-10.161423 84.604888s213.926346 107.294524 257.538415 284.866961c0 0 40.740362 130.741533-82.048754 190.88958z m0 0"  horiz-adv-x="1132" />

    
    <glyph glyph-name="haiwaizhuanli" unicode="&#58885;" d="M511.97595173 709.88839531a325.86434704 325.86434704 0 1 1 292.57860663-469.54270445 15.0854642 15.0854642 0 0 1 3.48126076 7.26789552A326.01703402 326.01703402 0 0 1 511.82326474 709.88839531z m250.40648927-167.71127274a696.25218977 696.25218977 0 0 0-101.13979193-26.32321887c-14.07773073 65.07514961-38.4465574 119.09576894-69.50306906 153.51139243a296.9454513 296.9454513 0 0 0 170.79554797-127.18817356z m-250.40648927 138.09001749c51.08903108 0 97.99444188-68.83124695 120.07296566-169.23814197a842.98428503 842.98428503 0 0 0-120.07296566-8.4893908 838.86173892 838.86173892 0 0 0-120.07296503 8.4893908C413.98150985 611.43589246 460.88692064 680.26714006 511.97595173 680.26714006z m-79.88577723-10.90184393c-31.08704969-34.38508608-55.45587638-88.55839241-69.50306971-153.51139243a696.25218977 696.25218977 0 0 0-101.13979192 26.32321887 296.76222692 296.76222692 0 0 0 170.64286163 127.18817356zM239.55201412 267.4628814a296.9149139 296.9149139 0 0 0 7.11520853 248.48263451 721.44552557 721.44552557 0 0 1 110.4231544-29.19373233 646.84271428 646.84271428 0 0 1-8.03132982-102.72773532 655.48479143 655.48479143 0 0 1 5.83263847-87.85603288 776.65710277 776.65710277 0 0 1-114.20978852-28.27761104z m13.13107202-26.81181721a752.31881347 752.31881347 0 0 0 106.88081821 26.26214408c13.4975208-71.67122303 39.08784213-131.31071967 72.49573274-168.23040851a296.85383909 296.85383909 0 0 0-179.37655095 141.96826443z m259.2928656-152.87010771c-52.95181106 0-101.41462785 74.02260137-122.36326857 180.47589663-1.557406 7.93971763-3.05373785 16.15427248-4.33630728 24.61312524-0.5802099 3.81717215-0.97719608 7.48165732-1.46579444 11.20721727a621.92421443 621.92421443 0 0 0-5.09974156 79.91631526 610.74753459 610.74753459 0 0 0 7.69541908 97.87229229 871.04813364 871.04813364 0 0 1 125.56969277-8.94745112 873.55219898 873.55219898 0 0 1 125.63076819 9.00852591 611.17505814 611.17505814 0 0 0 7.69541846-97.87229229 618.77886504 618.77886504 0 0 0-4.64168124-76.34344167l-0.18322376-1.19095787c-0.21376177-1.80170519-0.42752357-3.60341036-0.67182275-5.37457813-0.48859772-3.60341036-0.97719608-7.14574594-1.557406-10.81023173-0.97719608-6.32123683-2.04600437-12.45924992-3.05373784-18.47511279-20.64326673-108.31607525-69.62521866-184.079307-123.21831506-184.079307z m79.91631526 10.90184328c33.59111438 37.04183776 59.18143634 96.9256336 72.6178817 168.87169386a754.27320501 754.27320501 0 0 0 107.39995397-25.80408375 296.9149139 296.9149139 0 0 0-180.01783567-143.06761011z m193.02675811 170.00157628a784.59682041 784.59682041 0 0 1-115.73665776 28.15546144 652.58374057 652.58374057 0 0 1 5.74102691 87.18421078 646.56787771 646.56787771 0 0 1-8.03133046 102.72773532 724.98786113 724.98786113 0 0 1 110.42315441 29.19373233 297.06760089 297.06760089 0 0 0 7.6038069-247.35275207zM416.8825607 438.22789199h103.46063222q35.97302948 0 56.43307247-16.45964645 21.37616364-17.49791669 21.37616365-50.38667158a60.43346836 60.43346836 0 0 0-11.08506767-35.6065807 55.30318939 55.30318939 0 0 0-32.58338091-20.82649111v-0.82450912q34.2629365-7.72595648 38.29387042-43.6684492l3.69502256-36.95022558q2.01546697-21.864762 12.76462327-35.27066996h-29.89609183a63.91472978 63.91472978 0 0 0-9.74142346 31.91155879l-3.0537372 31.91155816q-2.01546697 21.37616364-15.11600159 30.53737717-11.78742718 8.70315257-34.59884787 8.73368933H444.42727419v-102.94149645h-27.48363868z m27.48363933-23.84969156v-89.01645274h72.55680692q26.20106927 0 40.64524813 12.42871189 12.76462327 11.75688977 12.76462388 32.58338089 0 22.17013533-12.42871251 32.91929228-13.10053464 11.08506767-40.9811595 11.08506768z"  horiz-adv-x="1024" />

    
    <glyph glyph-name="shangbiaozhuce_huaban1" unicode="&#58886;" d="M542.279146 718.301334A336.05276 336.05276 0 1 0 303.454159 619.874388a337.662178 337.662178 0 0 0 238.824987 98.426946z m216.734938-120.516995a306.515208 306.515208 0 0 1-433.469876-433.469876 304.306204 304.306204 0 0 1 433.469876 0 304.306204 304.306204 0 0 1 0 433.469876z m0 0M405.163056 188.645074V573.453727h170.408949c34.271133 0 60.810749-3.313507 78.514346-11.076581a85.804062 85.804062 0 0 0 43.107153-36.480138 111.933434 111.933434 0 0 0 15.494591-57.497242 95.271226 95.271226 0 0 0-26.539616-68.573824c-17.703596-18.934328-44.180098-30.957626-81.827853-36.480138a98.900305 98.900305 0 0 0 30.957626-18.934328 285.182533 285.182533 0 0 0 42.00265-50.870227l66.270147-105.022404h-63.114425l-50.870228 79.587291q-23.226109 34.712934-36.511695 53.079232a117.29816 117.29816 0 0 1-26.539616 26.539616 103.128972 103.128972 0 0 1-23.226108 9.972079 142.922617 142.922617 0 0 1-27.612562 2.209005h-59.643132v-171.387223z m50.870227 214.589047h109.471971a165.801596 165.801596 0 0 1 54.183735 7.763075 52.76366 52.76366 0 0 1 29.853123 23.226108A61.82058 61.82058 0 0 1 659.545749 468.399766c0 17.672039-5.522512 33.166631-18.934328 45.347715q-19.881044 16.567537-63.114426 16.567536h-121.463712z m0 0"  horiz-adv-x="1132" />

    
    <glyph glyph-name="haiwaishangbiao_huaban1" unicode="&#58888;" d="M544.425036 718.017319a336.747018 336.747018 0 1 1 302.349657-485.223704 15.589263 15.589263 0 0 1 3.597522 7.510616 336.904804 336.904804 0 0 1-306.104965 477.713088z m258.769146-173.312213a719.504453 719.504453 0 0 0-104.517489-27.202317c-14.547875 67.248421-39.730531 123.07313-71.824217 158.638109a306.862338 306.862338 0 0 0 176.499492-131.435792z m-258.769146 142.701717c52.795217 0 101.267096-71.129958 124.082961-174.890074a871.136861 871.136861 0 0 0-124.082961-8.772905 866.876637 866.876637 0 0 0-124.082961 8.772905c22.815865 103.760116 71.287744 174.890074 124.082961 174.890074z m-82.553669-11.265925c-32.125243-35.533422-57.307899-91.515917-71.824216-158.638109a719.504453 719.504453 0 0 0-104.517489 27.202317 306.672995 306.672995 0 0 0 176.341705 131.435792zM262.90314 260.81642a306.830781 306.830781 0 0 0 7.352831 256.781041 745.539154 745.539154 0 0 1 114.110882-30.168696 668.444883 668.444883 0 0 1-8.299547-106.158464 677.375574 677.375574 0 0 1 6.027427-90.790101 802.594595 802.594595 0 0 1-118.023976-29.221979z m13.569602-27.707233a777.443496 777.443496 0 0 0 110.450245 27.139203c13.948288-74.064779 40.393232-135.696015 74.916823-173.848686a306.767666 306.767666 0 0 0-185.367068 146.709483z m267.952294-157.975408c-54.720207 0-104.801504 76.494684-126.449752 186.503128-1.609418 8.204875-3.155721 16.693766-4.481124 25.435114-0.599587 3.944652-1.009831 7.731517-1.514746 11.581497a642.694197 642.694197 0 0 0-5.270055 82.585226 631.144257 631.144257 0 0 0 7.952418 101.140867 900.13794 900.13794 0 0 1 129.763259-9.246263 902.725631 902.725631 0 0 1 129.826374 9.309378 631.586058 631.586058 0 0 0 7.952418-101.140868 639.443804 639.443804 0 0 0-4.796697-78.893032l-0.189343-1.230731c-0.2209-1.861876-0.441801-3.723751-0.694259-5.55407-0.504915-3.723751-1.009831-7.384388-1.609418-11.171253-1.009831-6.532343-2.114333-12.875343-3.155721-19.092114-21.332676-111.933434-71.950445-190.226879-127.333354-190.226879z m82.585226 11.265925c34.712934 38.278899 61.157879 100.162594 75.043052 174.511387a779.463158 779.463158 0 0 0 110.986718-26.665845 306.830781 306.830781 0 0 0-186.02977-147.845542z m199.473143 175.679004a810.79947 810.79947 0 0 1-119.601837 29.09575 674.377639 674.377639 0 0 1 5.932756 90.095843 668.160868 668.160868 0 0 1-8.299547 106.158464 749.19979 749.19979 0 0 1 114.110882 30.168696 306.988567 306.988567 0 0 0 7.857746-255.613425zM461.934482 427.81719h101.361767q85.393818 0 85.393818-72.897162 0-73.59142-85.740947-73.59142h-72.581589v-101.361768h-28.401492z m28.401491-24.646183V305.88012H561.718389q29.505994 0 44.432556 12.149527 14.232303 12.149527 14.232303 36.79571 0 25.24577-14.579433 36.101451-14.232303 12.181084-44.180098 12.149527z"  horiz-adv-x="1132" />

    
    <glyph glyph-name="zhishichanquanlingpaozhe_huaban1" unicode="&#58889;" d="M535.525902 46.732288h-0.2209a16.094179 16.094179 0 0 0-12.812229 6.5639l-314.499183 426.022373a16.18885 16.18885 0 0 0 0.441801 19.81793l153.746741 189.059262a16.220407 16.220407 0 0 0 12.622885 5.995871H692.36525a16.125736 16.125736 0 0 0 11.865512-5.175383l175.994576-189.059262a16.220407 16.220407 0 0 0 0.915159-21.017104l-332.833924-426.022374a16.18885 16.18885 0 0 0-12.780671-6.311442zM241.475793 488.343924l294.460353-398.725384 311.185676 398.283583-161.79383 173.817129h-302.949244z m0 0M535.525902 46.732288a16.125736 16.125736 0 0 0-15.336805 11.234367l-136.484946 426.022374a16.094179 16.094179 0 0 0 1.798761 13.664273l121.305926 188.996148a16.157293 16.157293 0 0 0 13.601159 7.384388h26.318716a16.157293 16.157293 0 0 0 13.411815-7.163488l127.428026-189.059262a16.062621 16.062621 0 0 0 1.988104-14.04296l-138.630836-426.022373a16.094179 16.094179 0 0 0-15.39992-11.171253z m-118.749792 439.781318l118.844464-370.955037L656.390027 486.324263l-118.276433 175.394989h-8.867577z m0 0M858.513976 467.516164H227.211933a16.18885 16.18885 0 1 0 0 32.346143h631.144257a16.18885 16.18885 0 1 0 0-32.346143z m0 0"  horiz-adv-x="1132" />

    
    <glyph glyph-name="falvyususong_huaban1" unicode="&#58890;" d="M885.905637 342.044686v-0.946717c-0.504915-75.137724-60.274277-136.043145-133.61324-136.043145s-133.360782 61.000092-133.771025 136.264046v1.136059a17.32491 17.32491 0 0 0 0.315572 2.997935 0.378687 0.378687 0 0 1 0 0.315573 26.981417 26.981417 0 0 0 0.820488 3.155721 5.648741 5.648741 0 0 1 0.315572 0.820487l0.315572 0.725816 117.424389 229.357823h-185.083053v-444.956701h111.081389v-0.284015a18.271626 18.271626 0 0 0 0-36.385466v-0.315572h-259.274061v0.315572a18.334741 18.334741 0 0 0 0 36.574809v0.315573h111.081389l0.757373 444.956701h-185.808869l116.761688-228.095535a18.019169 18.019169 0 0 0 2.493019-9.467164v-0.946716c-0.536473-75.043052-60.274277-136.043145-133.644796-136.043145s-133.234553 61.000092-133.644796 136.264046v1.136059a16.125736 16.125736 0 0 0 0.315572 2.997935v0.315573c0.2209 1.041388 0.536473 1.988104 0.852044 3.155721 0 0.189343 0.189343 0.504915 0.284015 0.725816a5.049154 5.049154 0 0 1 0.315572 0.725816l109.124843 229.326266h-74.159451a18.524084 18.524084 0 0 0 0 37.01661h296.259115V678.097445a18.492527 18.492527 0 0 0 36.985053 0v-61.189436h297.016487a18.524084 18.524084 0 0 0 0-37.01661h-74.822151l108.683041-228.411107a18.587198 18.587198 0 0 0 2.619249-9.467164z m-569.891707-100.383495c47.998521 0 88.013067 35.43875 96.438842 82.048754H219.575087c8.425776-46.736232 48.440322-82.048753 96.438843-82.048754z m-86.877007 118.655121h174.069586l-85.740948 178.32981z m524.480877 178.32981l-88.360196-178.32981H839.421862z m-98.016703-214.809948c8.425776-46.641561 48.440322-82.048753 96.438843-82.048754s88.013067 35.43875 96.438842 82.048754z m0 0"  horiz-adv-x="1132" />

    
    <glyph glyph-name="dianhua" unicode="&#58909;" d="M976.738462 111.458462c0-11.027692-1.575385-26.781538-6.301539-45.686154-4.726154-18.904615-9.452308-33.083077-14.178461-44.11077-9.452308-22.055385-36.233846-44.110769-78.769231-69.316923-40.96-22.055385-80.344615-33.083077-121.304616-33.083077-11.027692 0-23.630769 0-34.658461 3.15077-11.027692 1.575385-23.630769 4.726154-37.809231 7.876923-14.178462 3.150769-23.630769 6.301538-29.932308 9.452307-6.301538 3.150769-18.904615 6.301538-36.233846 12.603077-17.329231 6.301538-28.356923 11.027692-31.507692 11.027693-42.535385 15.753846-80.344615 33.083077-113.427692 53.563077-55.138462 34.658462-111.852308 80.344615-171.716923 140.20923-59.864615 59.864615-105.550769 116.578462-140.209231 171.716923-20.48 33.083077-39.384615 70.892308-53.563077 113.427693-1.575385 3.150769-4.726154 14.178462-11.027692 31.507692-6.301538 17.329231-11.027692 29.932308-12.603077 36.233846-3.150769 6.301538-4.726154 17.329231-9.452308 29.932308-3.150769 14.178462-6.301538 26.781538-7.876923 37.809231-3.150769 12.603077-3.150769 23.630769-3.150769 36.233846 0 39.384615 11.027692 80.344615 33.083077 121.304615 23.630769 44.110769 47.261538 70.892308 69.316923 78.769231 11.027692 4.726154 25.206154 9.452308 44.110769 14.178462s34.658462 6.301538 45.686154 6.301538c6.301538 0 11.027692 0 14.178461-1.575385 7.876923-3.150769 18.904615-18.904615 34.658462-48.836923 4.726154-7.876923 11.027692-20.48 18.904615-34.658461 7.876923-15.753846 15.753846-28.356923 22.055385-40.96 6.301538-12.603077 14.178462-23.630769 20.48-34.658462 1.575385-1.575385 4.726154-7.876923 11.027692-15.753846 6.301538-9.452308 11.027692-17.329231 14.178462-23.630769 3.150769-6.301538 4.726154-12.603077 4.726153-18.904616 0-9.452308-6.301538-18.904615-18.904615-33.083076-12.603077-12.603077-25.206154-25.206154-40.96-36.233847-14.178462-11.027692-28.356923-22.055385-40.96-34.658461-12.603077-12.603077-18.904615-22.055385-18.904615-29.932308 0-3.150769 1.575385-9.452308 3.150769-14.178461 1.575385-6.301538 3.150769-11.027692 4.726154-12.603077 1.575385-3.150769 4.726154-7.876923 9.452307-15.753846s6.301538-11.027692 7.876924-12.603077c33.083077-59.864615 70.892308-110.276923 113.427692-152.812308 42.535385-42.535385 92.947692-80.344615 152.812308-113.427692 1.575385 0 4.726154-3.150769 12.603076-7.876923s12.603077-7.876923 15.753847-9.452308c3.150769-1.575385 7.876923-3.150769 12.603077-4.726154 6.301538-1.575385 11.027692-3.150769 14.178461-3.150769 7.876923 0 17.329231 6.301538 29.932308 18.904615 12.603077 12.603077 23.630769 25.206154 34.658461 40.96 11.027692 14.178462 22.055385 28.356923 36.233846 40.96 12.603077 12.603077 23.630769 18.904615 33.083077 18.904616 6.301538 0 12.603077-1.575385 18.904616-4.726154s14.178462-7.876923 23.630769-14.178462 14.178462-9.452308 15.753846-11.027692c11.027692-6.301538 22.055385-12.603077 34.658462-20.48 12.603077-6.301538 26.781538-14.178462 40.96-22.055385 15.753846-7.876923 26.781538-14.178462 34.658461-18.904615 29.932308-15.753846 47.261538-26.781538 48.836923-34.658462 3.150769-6.301538 3.150769-11.027692 3.15077-17.32923z"  horiz-adv-x="1024" />

    
    <glyph glyph-name="youxiang" unicode="&#58887;" d="M512.4 404.3l431.8 168c8.4 3.3 13.9 11.3 13.9 20.3v83.9c0 24.1-19.5 43.6-43.6 43.6H109.8c-24.1 0-43.6-19.5-43.6-43.6v-103.2c0-9.1 5.7-17.3 14.2-20.5l400.9-148.7c10.1-3.7 21.1-3.7 31.1 0.2zM479.1 324.2L95.7 467.3c-14.3 5.3-29.4-5.2-29.4-20.4v-368.6c0-24.1 19.5-43.6 43.6-43.6h804.6c24.1 0 43.6 19.5 43.6 43.6V470.1c0 15.4-15.5 26-29.9 20.3L510.5 324.5c-10.1-4-21.2-4.1-31.4-0.3z"  horiz-adv-x="1024" />

    


  </font>
</defs>
</svg>
